<?xml version="1.0" standalone="no"?>
<!DOCTYPE svg PUBLIC "-//W3C//DTD SVG 1.1//EN" "http://www.w3.org/Graphics/SVG/1.1/DTD/svg11.dtd" >
<svg>
<metadata>
Created by FontForge 20090914 at Wed Oct 28 03:57:53 2015
 By www-data
Copyright 1990-1992 as an unpublished work by Bitstream Inc.  All rights reserved.  Confidential.
</metadata>
<defs>
<font id="Square721BT-Roman" horiz-adv-x="500" >
  <font-face 
    font-family="Square 721"
    font-weight="400"
    font-stretch="normal"
    units-per-em="1000"
    panose-1="2 0 5 3 3 0 0 2 0 4"
    ascent="800"
    descent="-200"
    x-height="514"
    cap-height="727"
    bbox="-167 -236 1300 990"
    underline-thickness="51"
    underline-position="-48"
    unicode-range="U+0020-U+FB02"
  />
<missing-glyph horiz-adv-x="338" 
 />
    <glyph glyph-name="fi" unicode="fi" horiz-adv-x="562" 
d="M406 723h77v-86h-77v86zM406 514h77v-514h-77v514zM23 514l72 -0.000976562c-0.666992 6 -1 12 -1 18v17c0 32.667 2.66699 60.334 8 83.001s14 41 26 55s27.833 24.167 47.5 30.5s43.834 9.5 72.501 9.5c13.333 0 27 -0.333008 41 -1s28.667 -1.66699 44 -3v-69
c-13.333 0.666992 -25.333 1.16699 -36 1.5s-20 0.5 -28 0.5c-22.667 0 -40.5 -1.66699 -53.5 -5s-22.833 -9.16602 -29.5 -17.499s-10.834 -19.333 -12.501 -33s-2.5 -30.834 -2.5 -51.501v-35h162v-65h-162v-449h-76v449h-72v65z" />
    <glyph glyph-name="fl" unicode="fl" horiz-adv-x="562" 
d="M406 723h77v-723h-77v723zM23 514l72 -0.000976562c-0.666992 6 -1 12 -1 18v17c0 32.667 2.66699 60.334 8 83.001s14 41 26 55s27.833 24.167 47.5 30.5s43.834 9.5 72.501 9.5c13.333 0 27 -0.333008 41 -1s28.667 -1.66699 44 -3v-69
c-13.333 0.666992 -25.333 1.16699 -36 1.5s-20 0.5 -28 0.5c-22.667 0 -40.5 -1.66699 -53.5 -5s-22.833 -9.16602 -29.5 -17.499s-10.834 -19.333 -12.501 -33s-2.5 -30.834 -2.5 -51.501v-35h162v-65h-162v-449h-76v449h-72v65z" />
    <glyph glyph-name=".notdef" horiz-adv-x="338" 
 />
    <glyph glyph-name="space" unicode=" " horiz-adv-x="338" 
 />
    <glyph glyph-name="space" unicode="&#xa0;" horiz-adv-x="338" 
 />
    <glyph glyph-name="exclam" unicode="!" horiz-adv-x="252" 
d="M88 727h76l-4 -532h-67zM88 94h76v-94h-76v94z" />
    <glyph glyph-name="quotedbl" unicode="&#x22;" horiz-adv-x="278" 
d="M231 430h-50v270h50v-270zM97 430h-49v270h49v-270z" />
    <glyph glyph-name="numbersign" unicode="#" horiz-adv-x="769" 
d="M346 422l-47 -136h130l47 136h-130zM366 474h129l84 236h62l-83 -236h154l-18 -52h-155l-48 -136h166l-18 -52h-166l-83 -234h-63l84 234h-131l-84 -234h-62l83 234h-160l19 52h159l49 136h-172l17 52h173l84 236h62z" />
    <glyph glyph-name="dollar" unicode="$" horiz-adv-x="676" 
d="M286 661c-26.667 0 -48.668 -2.16895 -66.001 -6.50195s-31 -11.666 -41 -21.999s-16.833 -24 -20.5 -41s-5.5 -38.167 -5.5 -63.5c0 -22.667 2.16699 -41.167 6.5 -55.5s12.333 -25.666 24 -33.999s27.334 -14.333 47.001 -18s45.167 -6.5 76.5 -8.5v249h-21z
M395.999 64.998c26.667 0 48.834 2.33398 66.501 7.00098s31.5 12.5 41.5 23.5s17 25.667 21 44s6 41.166 6 68.499c0 24 -2.33301 43.833 -7 59.5s-12.834 28.167 -24.501 37.5s-27.5 16 -47.5 20s-45 6.33301 -75 7v-267h19zM142.999 236.999
c0 -5.33301 -0.167969 -10.6631 -0.500977 -15.9961s-0.5 -10.666 -0.5 -15.999c0 -26.667 2 -48.834 6 -66.501s10.833 -31.834 20.5 -42.501s22.834 -18.167 39.501 -22.5s37.667 -6.5 63 -6.5h17c6 0 12.333 0.333008 19 1v267
c-42.667 0.666992 -78.667 4.16699 -108 10.5s-53.166 16.833 -71.499 31.5s-31.666 34.167 -39.999 58.5s-12.5 55.166 -12.5 92.499s3.66699 69.166 11 95.499s19 48 35 65s36.667 29.333 62 37s56 11.5 92 11.5h16c5.33301 0 10.666 -0.333008 15.999 -1v51h70v-51h20
c72 0 124 -13.333 156 -40s48 -71 48 -133c0 -6.66699 -0.166992 -13.334 -0.5 -20.001s-0.833008 -13.667 -1.5 -21h-77c0.666992 5.33301 1 10.666 1 15.999v15c0 21.333 -2.16699 38.833 -6.5 52.5s-11.5 24.5 -21.5 32.5s-23.5 13.5 -40.5 16.5s-38.167 4.5 -63.5 4.5
h-14v-250c43.333 -1.33301 79.833 -5.33301 109.5 -12s53.5 -17.5 71.5 -32.5s31 -35 39 -60s12 -56.167 12 -93.5c0 -39.333 -3.66699 -73.166 -11 -101.499s-18.833 -51.5 -34.5 -69.5s-36 -31.167 -61 -39.5s-55.167 -12.5 -90.5 -12.5h-17c-6 0 -12 0.333008 -18 1v-47
h-70v47c-4.66699 0 -9.33398 -0.166992 -14.001 -0.5s-9 -0.5 -13 -0.5c-75.333 0 -130 16 -164 48s-51 84.333 -51 157c0 7.33301 0.166992 14.5 0.5 21.5s0.833008 14.5 1.5 22.5h76z" />
    <glyph glyph-name="percent" unicode="%" horiz-adv-x="907" 
d="M547 736h69l-257 -745h-69zM225 337c20 0 35.833 1.50195 47.5 4.50195s20.5 8.5 26.5 16.5s9.83301 18.667 11.5 32s2.5 30.666 2.5 51.999v123c0 20.667 -0.833008 37.834 -2.5 51.501s-5.5 24.5 -11.5 32.5s-14.833 13.667 -26.5 17s-27.5 5 -47.5 5h-36
c-20 0 -35.833 -1.66699 -47.5 -5s-20.667 -9 -27 -17s-10.333 -18.833 -12 -32.5s-2.5 -30.834 -2.5 -51.501v-123c0 -21.333 1 -38.833 3 -52.5s6 -24.334 12 -32.001s14.833 -13 26.5 -16s27.5 -4.5 47.5 -4.5h36zM718 57.002c20 0 35.833 1.50195 47.5 4.50195
s20.5 8.5 26.5 16.5s10 18.667 12 32s3 30.666 3 51.999v123c0 20.667 -0.833008 37.834 -2.5 51.501s-5.66699 24.5 -12 32.5s-15.333 13.667 -27 17s-27.5 5 -47.5 5h-35c-20 0 -35.833 -1.66699 -47.5 -5s-20.667 -9 -27 -17s-10.333 -18.833 -12 -32.5
s-2.5 -30.834 -2.5 -51.501v-123c0 -21.333 1 -38.833 3 -52.5s6 -24.334 12 -32.001s14.833 -13 26.5 -16s27.5 -4.5 47.5 -4.5h35zM185 271.004c-28 0 -51.5 2.66699 -70.5 8s-34.333 14.166 -46 26.499s-20 28.333 -25 48s-7.5 43.834 -7.5 72.501v154
c0 28.667 2.5 52.834 7.5 72.501s13.333 35.667 25 48s27 21.333 46 27s42.5 8.5 70.5 8.5h44c28 0 51.5 -2.83301 70.5 -8.5s34.333 -14.667 46 -27s19.834 -28.333 24.501 -48s7 -43.834 7 -72.501v-154c0 -28.667 -2.33301 -52.834 -7 -72.501
s-12.834 -35.667 -24.501 -48s-27 -21.166 -46 -26.499s-42.5 -8 -70.5 -8h-44zM678 -8.99609c-28 0 -51.5 2.66699 -70.5 8s-34.167 14.166 -45.5 26.499s-19.5 28.5 -24.5 48.5s-7.5 44.333 -7.5 73v153c0 28.667 2.5 52.834 7.5 72.501s13.167 35.667 24.5 48
s26.5 21.333 45.5 27s42.5 8.5 70.5 8.5h44c28 0 51.667 -2.83301 71 -8.5s34.666 -14.667 45.999 -27s19.5 -28.333 24.5 -48s7.5 -43.834 7.5 -72.501v-153c0 -28.667 -2.5 -53 -7.5 -73s-13.167 -36.167 -24.5 -48.5s-26.666 -21.166 -45.999 -26.499s-43 -8 -71 -8h-44z
" />
    <glyph glyph-name="ampersand" unicode="&#x26;" horiz-adv-x="727" 
d="M256 370c-24.667 -0.666992 -44.6689 -4 -60.002 -10s-27.333 -15 -36 -27s-14.5 -27.333 -17.5 -46s-4.5 -41 -4.5 -67c0 -32 1.5 -58.167 4.5 -78.5s11.167 -36.166 24.5 -47.499c14.667 -12.667 37.334 -20.334 68.001 -23.001s70.334 -4 119.001 -4
c50 0 88.833 5.66699 116.5 17s45.5 32 53.5 62zM589.998 90c-10 -22 -22.998 -39.667 -38.998 -53s-35.333 -23.5 -58 -30.5s-49.167 -11.5 -79.5 -13.5s-64.5 -3 -102.5 -3c-26 0 -49.833 0.666992 -71.5 2s-41.5 4 -59.5 8s-34.167 10.167 -48.5 18.5
s-27.5 19.5 -39.5 33.5c-14.667 17.333 -24.5 40.5 -29.5 69.5s-7.5 64.5 -7.5 106.5c0 58.667 9.5 103.667 28.5 135s53.167 52 102.5 62c-44.667 31.333 -67 82.666 -67 153.999c0 31.333 4 57.166 12 77.499s20.667 36.333 38 48s39.666 19.834 66.999 24.501
s60.666 7 99.999 7c76 0 131.667 -12 167 -36s53 -65 53 -123v-61h-81v56c0 21.333 -2.5 38 -7.5 50s-13 20.833 -24 26.5s-25.333 9 -43 10s-39.167 1.5 -64.5 1.5s-46.5 -0.5 -63.5 -1.5s-30.667 -4.16699 -41 -9.5s-17.666 -13.5 -21.999 -24.5s-6.5 -26.167 -6.5 -45.5
c0 -18 1.5 -33 4.5 -45s7.66699 -22.667 14 -32s14.166 -18.166 23.499 -26.499l32 -27.5l262 -219v101h81v-107c0 -14 -2 -33 -6 -57l137 -114l-47 -57z" />
    <glyph glyph-name="quotesingle" unicode="'" horiz-adv-x="144" 
d="M97 430h-49v270h49v-270z" />
    <glyph glyph-name="parenleft" unicode="(" horiz-adv-x="324" 
d="M74 487c0 44.667 2.83301 82.8359 8.5 114.503s15.334 57.5 29.001 77.5s31.834 34.5 54.501 43.5s51 13.5 85 13.5h31v-76h-22c-23.333 0 -41.666 -2.83301 -54.999 -8.5s-23.5 -15.334 -30.5 -29.001s-11.5 -31.667 -13.5 -54s-3 -50.5 -3 -84.5v-241
c0 -34 1 -62.167 3 -84.5s6.5 -40.333 13.5 -54s17.167 -23.334 30.5 -29.001s31.666 -8.5 54.999 -8.5h22v-76h-31c-34 0 -62.333 4.5 -85 13.5s-40.834 23.5 -54.501 43.5s-23.334 45.667 -29.001 77s-8.5 69.666 -8.5 114.999v247z" />
    <glyph glyph-name="parenright" unicode=")" horiz-adv-x="324" 
d="M250 240c0 -45.333 -2.83301 -83.668 -8.5 -115.001s-15.334 -57 -29.001 -77s-31.834 -34.5 -54.501 -43.5s-51 -13.5 -85 -13.5h-31v76h22c23.333 0 41.666 2.83301 54.999 8.5s23.5 15.334 30.5 29.001s11.5 31.667 13.5 54s3 50.5 3 84.5v241c0 34 -1 62.167 -3 84.5
s-6.5 40.333 -13.5 54s-17.167 23.334 -30.5 29.001s-31.666 8.5 -54.999 8.5h-22v76h31c34 0 62.333 -4.5 85 -13.5s40.834 -23.5 54.501 -43.5s23.334 -45.833 29.001 -77.5s8.5 -69.834 8.5 -114.501v-247z" />
    <glyph glyph-name="asterisk" unicode="*" 
d="M247 475l-70 -121l-55 32l69 121zM49 512v65h138v-65h-138zM309 507l69 -120l-55 -32l-70 120zM312 577h139v-65h-139v65zM378 703l-69 -121l-56 33l70 120zM177 735l70 -120l-56 -32l-69 120z" />
    <glyph glyph-name="plus" unicode="+" horiz-adv-x="833" 
d="M441 322h268v-48h-268v-274h-48v274h-269v48h269v274h48v-274z" />
    <glyph glyph-name="comma" unicode="," horiz-adv-x="338" 
d="M126 106h85.999v-128c0 -25.333 -7.33301 -45.166 -22 -59.499s-36 -21.5 -64 -21.5v45c12.667 1.33301 21.834 4.66602 27.501 9.99902s8.5 14 8.5 26v22h-36v106z" />
    <glyph glyph-name="hyphen" unicode="-" horiz-adv-x="403" 
d="M65 305h273v-68h-273v68z" />
    <glyph glyph-name="hyphen" unicode="&#xad;" horiz-adv-x="403" 
d="M65 305h273v-68h-273v68z" />
    <glyph glyph-name="period" unicode="." horiz-adv-x="338" 
d="M65 106h85v-106h-85v106z" />
    <glyph glyph-name="slash" unicode="/" horiz-adv-x="266" 
d="M-23 -93l258 829h68l-259 -829h-67z" />
    <glyph glyph-name="zero" unicode="0" horiz-adv-x="676" 
d="M370 66c29.333 0 54.167 1.66211 74.5 4.99512s37.833 12.666 52.5 27.999c15.333 15.333 24.333 34.5 27 57.5s4 51.167 4 84.5v244c0 33.333 -1.33301 61.5 -4 84.5s-11.667 42.167 -27 57.5c-14 14.667 -31.167 24 -51.5 28s-45.5 6 -75.5 6h-64
c-30 0 -55.167 -1.66699 -75.5 -5s-37.5 -12.666 -51.5 -27.999c-15.333 -15.333 -24.333 -34.666 -27 -57.999s-4 -51.666 -4 -84.999v-243c0 -33.333 1.33301 -61.666 4 -84.999s11.667 -42.666 27 -57.999c14 -15.333 31.167 -24.666 51.5 -27.999s45.5 -5 75.5 -5h64z
M303.001 -9.00488c-45.333 0 -83.166 4.33301 -113.499 13s-54.666 22.834 -72.999 42.501s-31.5 45.334 -39.5 77.001s-12 70.5 -12 116.5v247c0 46 4 84.833 12 116.5s21.167 57.334 39.5 77.001s42.666 33.834 72.999 42.501s68.166 13 113.499 13h70
c44.667 0 82.334 -4.33301 113.001 -13s55.167 -22.834 73.5 -42.501s31.5 -45.334 39.5 -77.001s12 -70.5 12 -116.5v-247c0 -46 -4 -84.833 -12 -116.5s-21.167 -57.334 -39.5 -77.001s-42.833 -33.834 -73.5 -42.501s-68.334 -13 -113.001 -13h-70z" />
    <glyph glyph-name="one" unicode="1" horiz-adv-x="676" 
d="M357 655l-171 -172l-50 49l195 195h105v-727h-79v655z" />
    <glyph glyph-name="two" unicode="2" horiz-adv-x="676" 
d="M73 123c0 31.333 2.33301 58.8301 7 82.4971s15 45.167 31 64.5c16.667 20 37 34.833 61 44.5s51.667 18.834 83 27.501l164 45c52 14 84 30.333 96 49c6.66699 9.33301 10.5 21.833 11.5 37.5s1.5 35.167 1.5 58.5c0 26.667 -1.5 48.5 -4.5 65.5
s-11.833 31.167 -26.5 42.5c-18.667 14 -78.334 21 -179.001 21c-32.667 0 -59.5 -1.33301 -80.5 -4s-37.5 -8.16699 -49.5 -16.5s-20.333 -20.5 -25 -36.5s-7 -37.333 -7 -64v-43h-83v48c0 39.333 4.66699 71.333 14 96s24 44 44 58s45.833 23.667 77.5 29
s69.834 8 114.501 8c48 0 87.667 -1.16699 119 -3.5s55.333 -7.16602 72 -14.499c20.667 -9.33301 37.167 -19.666 49.5 -30.999s21.833 -24.666 28.5 -39.999s11 -33 13 -53s3 -43 3 -69c0 -31.333 -1.66699 -58 -5 -80s-10.333 -41 -21 -57s-25.5 -29.667 -44.5 -41
s-44.167 -21.333 -75.5 -30l-203 -57c-17.333 -5.33301 -32.5 -10.333 -45.5 -15s-23.833 -10.834 -32.5 -18.501s-15 -17 -19 -28s-6 -25.167 -6 -42.5v-80h452v-76h-535v123z" />
    <glyph glyph-name="three" unicode="3" horiz-adv-x="676" 
d="M152 241l-0.00390625 -64.9961c0 -25.333 3.5 -45.333 10.5 -60s18.167 -25.667 33.5 -33s35.166 -12 59.499 -14s53.833 -3 88.5 -3c46 0 82.833 2.16699 110.5 6.5s47.5 15.166 59.5 32.499c6 9.33301 9.66699 23.5 11 42.5s2 43.5 2 73.5
c0 19.333 -1.33301 36.166 -4 50.499s-8.5 26 -17.5 35s-21.833 15.667 -38.5 20s-39 6.5 -67 6.5h-111v74h101c26.667 0 48.167 2.33301 64.5 7s28.833 12 37.5 22s14.5 23.333 17.5 40s4.5 37 4.5 61c0 25.333 -1 46.333 -3 63s-9.33301 30 -22 40
c-9.33301 7.33301 -27.166 12.5 -53.499 15.5s-61.833 4.5 -106.5 4.5c-30 0 -55.5 -1 -76.5 -3s-38 -6.16699 -51 -12.5s-22.333 -15.833 -28 -28.5s-8.5 -29.667 -8.5 -51v-66h-81v64c0 32.667 4.83301 60.167 14.5 82.5s24.5 40.166 44.5 53.499s45.167 22.833 75.5 28.5
s66.5 8.5 108.5 8.5c46.667 0 86 -1.16699 118 -3.5s57.333 -8.16602 76 -17.499c31.333 -15.333 51.833 -36.5 61.5 -63.5s14.5 -63.5 14.5 -109.5c0 -25.333 -1.33301 -47.5 -4 -66.5s-7.66699 -35.333 -15 -49s-17.666 -24.667 -30.999 -33
s-30.666 -14.833 -51.999 -19.5c22.667 -4.66699 41.334 -11 56.001 -19s26.334 -18.5 35.001 -31.5s14.667 -28.5 18 -46.5s5 -39.333 5 -64c0 -28.667 -1.33301 -54.334 -4 -77.001s-7.66699 -43 -15 -61c-8 -18 -18.833 -32.5 -32.5 -43.5s-30.5 -19.5 -50.5 -25.5
s-43.333 -10 -70 -12s-57 -3 -91 -3c-26 0 -50 0.166992 -72 0.5s-42.167 1.83301 -60.5 4.5s-34.833 7 -49.5 13s-28 14.333 -40 25c-19.333 17.333 -33 38.166 -41 62.499s-12 53.5 -12 87.5v57h81z" />
    <glyph glyph-name="four" unicode="4" horiz-adv-x="676" 
d="M442 246v401l-308 -401h308zM55 262l356 465h112v-481h111v-77h-111v-169h-81v169h-387v93z" />
    <glyph glyph-name="five" unicode="5" horiz-adv-x="676" 
d="M150 213v-47.999c0 -22 3.33301 -39.667 10 -53s17.334 -23.333 32.001 -30s33.5 -11 56.5 -13s50.833 -3 83.5 -3h25c30.667 0 56.667 2 78 6s40.666 16 57.999 36c9.33301 11.333 15 25.166 17 41.499s3 36.166 3 59.499v33c0 27.333 -0.833008 51.333 -2.5 72
s-6.16699 38.667 -13.5 54c-12.667 24.667 -31.834 40.334 -57.501 47.001s-60.167 10 -103.5 10c-57.333 0 -100.166 -4.33301 -128.499 -13s-43.166 -27.667 -44.499 -57h-80v372h480v-77h-400v-209c9.33301 12.667 19.833 22.667 31.5 30s25 12.666 40 15.999
s31.667 5.5 50 6.5s38.833 1.5 61.5 1.5c41.333 0 77 -2 107 -6s55.667 -14.667 77 -32c14 -11.333 25.333 -24 34 -38s15.167 -29.667 19.5 -47s7.33301 -36.5 9 -57.5s2.5 -44.167 2.5 -69.5c0 -47.333 -3 -87.333 -9 -120s-20.333 -59.667 -43 -81
c-13.333 -12 -27.333 -21.667 -42 -29s-30.5 -12.666 -47.5 -15.999s-35.167 -5.5 -54.5 -6.5s-40 -1.5 -62 -1.5c-28 0 -53.667 0.5 -77 1.5s-44.333 3.33301 -63 7s-35.334 9.33398 -50.001 17.001s-27.667 18.167 -39 31.5c-26 31.333 -39 70.666 -39 117.999v47h81z" />
    <glyph glyph-name="six" unicode="6" horiz-adv-x="676" 
d="M76 537c0 36 3.83398 66.6689 11.501 92.002s20 45.833 37 61.5s39 27.167 66 34.5s60.167 11 99.5 11h113c72.667 0 125.5 -12.333 158.5 -37s49.5 -65.667 49.5 -123v-39h-81v23c0 22 -2.83301 39.5 -8.5 52.5s-15.334 23 -29.001 30s-31.667 11.5 -54 13.5
s-49.833 3 -82.5 3c-42 0 -76.333 -1.16699 -103 -3.5s-46.667 -7.83301 -60 -16.5c-11.333 -7.33301 -20.833 -19.333 -28.5 -36s-11.5 -36 -11.5 -58v-173c7.33301 16 17 28.833 29 38.5s26.5 17.167 43.5 22.5s36.5 8.83301 58.5 10.5s47 2.5 75 2.5
c42 0 78.667 -2.33301 110 -7s57.333 -12.667 78 -24s36.167 -26.5 46.5 -45.5s15.5 -42.833 15.5 -71.5v-132c0 -70 -20 -118 -60 -144c-25.333 -16 -56 -25.333 -92 -28s-79 -4 -129 -4c-46 0 -85 3.33301 -117 10s-58 18.167 -78 34.5s-34.5 38.166 -43.5 65.499
s-13.5 61.666 -13.5 102.999v334zM529.001 275.002c0 22.667 -3.16504 40.501 -9.49805 53.501s-16.833 22.667 -31.5 29s-34 10.333 -58 12s-53.667 2.5 -89 2.5c-44 0 -79.5 -2.33301 -106.5 -7s-46.833 -13.667 -59.5 -27c-9.33301 -10 -15.5 -24 -18.5 -42
s-4.5 -41 -4.5 -69c0 -60 5.66699 -97 17 -111c8.66699 -11.333 19 -20.166 31 -26.499s26 -11 42 -14s34 -4.83301 54 -5.5s42.667 -1 68 -1c33.333 0 60.666 1.16699 81.999 3.5s38.166 7.16602 50.499 14.499s20.833 17.666 25.5 30.999s7 31 7 53v104z" />
    <glyph glyph-name="seven" unicode="7" horiz-adv-x="676" 
d="M85 727h522v-80l-351 -647h-97l363 650h-437v77z" />
    <glyph glyph-name="eight" unicode="8" horiz-adv-x="676" 
d="M343 411c34 0 62.167 1.33398 84.5 4.00098s39.833 8.16699 52.5 16.5s21.5 20.5 26.5 36.5s7.5 37.333 7.5 64c0 21.333 -0.666992 39.666 -2 54.999s-5.66602 28.333 -12.999 39c-8.66699 13.333 -26.334 22.333 -53.001 27s-63.334 7 -110.001 7
c-41.333 0 -74.666 -1.83301 -99.999 -5.5s-43.333 -10.5 -54 -20.5c-9.33301 -9.33301 -15 -22.5 -17 -39.5s-3 -39.167 -3 -66.5c0 -26 2.83301 -46.833 8.5 -62.5s15.334 -27.5 29.001 -35.5s32.167 -13.167 55.5 -15.5s52.666 -3.5 87.999 -3.5zM337 67.001
c40 0 73.001 1.49902 99.001 4.49902s45.333 9.5 58 19.5c14.667 11.333 23.667 25.833 27 43.5s5 39.834 5 66.501c0 22 -1 41 -3 57s-6.66699 29.667 -14 41c-11.333 18 -30.833 29.167 -58.5 33.5s-65.5 6.5 -113.5 6.5c-41.333 0 -74.833 -1.33301 -100.5 -4
s-44.834 -9.33398 -57.501 -20.001c-11.333 -9.33301 -19 -22.666 -23 -39.999s-6 -39 -6 -65c0 -26.667 1.16699 -49 3.5 -67s8.83301 -32.667 19.5 -44c12 -13.333 31.5 -22 58.5 -26s62.167 -6 105.5 -6zM171.001 378c-18 4.66699 -32.9961 11.1719 -44.9961 19.5049
s-21.333 18.666 -28 30.999s-11.334 27.166 -14.001 44.499s-4 37.666 -4 60.999c0 29.333 1.33301 55.166 4 77.499s10.334 43.166 23.001 62.499c17.333 26 45 42.833 83 50.5s88.667 11.5 152 11.5c53.333 0 96.833 -2.66699 130.5 -8s58.167 -14.666 73.5 -27.999
c11.333 -9.33301 20.333 -19.5 27 -30.5s11.834 -23 15.501 -36s6 -27.167 7 -42.5s1.5 -32.333 1.5 -51c0 -49.333 -6.5 -87 -19.5 -113s-37.833 -42.333 -74.5 -49c21.333 -5.33301 38.666 -12.5 51.999 -21.5s23.833 -20.167 31.5 -33.5s13 -29.333 16 -48
s4.5 -40.334 4.5 -65.001c0 -42.667 -2.66699 -78.334 -8 -107.001s-17.666 -51.667 -36.999 -69c-20.667 -18.667 -49.834 -30.5 -87.501 -35.5s-85.834 -7.5 -144.501 -7.5c-29.333 0 -56 0.666992 -80 2s-45.5 4.33301 -64.5 9s-35.833 11.167 -50.5 19.5
s-27.334 19.166 -38.001 32.499c-12 15.333 -19.667 35.5 -23 60.5s-5 56.167 -5 93.5c0 24.667 1.33301 46.334 4 65.001s7.66699 34.834 15 48.501s17.666 25 30.999 34s30.666 16.5 51.999 22.5z" />
    <glyph glyph-name="nine" unicode="9" horiz-adv-x="676" 
d="M137 450c0 -22.667 3.16602 -40.5 9.49902 -53.5s16.833 -22.667 31.5 -29s34 -10.333 58 -12s53.667 -2.5 89 -2.5c44 0 79.5 2.33301 106.5 7s46.833 13.667 59.5 27c9.33301 10 15.333 24 18 42s4 41 4 69c0 30 -1.16699 54.167 -3.5 72.5s-6.5 31.166 -12.5 38.499
c-8.66699 11.333 -19.167 20.333 -31.5 27s-26.5 11.5 -42.5 14.5s-34.167 4.83301 -54.5 5.5s-42.833 1 -67.5 1c-33.333 0 -60.666 -1.33301 -81.999 -4s-38 -7.66699 -50 -15s-20.333 -17.666 -25 -30.999s-7 -31 -7 -53v-104zM589.999 188
c0 -36 -3.83691 -66.502 -11.5039 -91.502s-20 -45.5 -37 -61.5s-39 -27.5 -66 -34.5s-60.167 -10.5 -99.5 -10.5h-113c-73.333 0 -126.333 12.167 -159 36.5s-49 65.166 -49 122.499v39h81v-23c0 -22 2.83301 -39.5 8.5 -52.5s15.334 -23 29.001 -30s31.5 -11.5 53.5 -13.5
s49.667 -3 83 -3c42 0 76.333 1.16699 103 3.5s46.667 7.83301 60 16.5c11.333 7.33301 20.833 19.333 28.5 36s11.5 36 11.5 58v174c-15.333 -31.333 -39.666 -51.5 -72.999 -60.5s-78 -13.5 -134 -13.5c-42 0 -78.667 2.33301 -110 7s-57.166 12.667 -77.499 24
s-35.666 26.333 -45.999 45s-15.5 42.334 -15.5 71.001v133c0 69.333 20 117 60 143c25.333 16 55.833 25.5 91.5 28.5s78.5 4.5 128.5 4.5c46 0 85 -3.33301 117 -10s58 -18.167 78 -34.5s34.667 -38.166 44 -65.499s14 -61.666 14 -102.999v-335z" />
    <glyph glyph-name="colon" unicode=":" horiz-adv-x="338" 
d="M126 106h86v-106h-86v106zM126 514h86v-107h-86v107z" />
    <glyph glyph-name="semicolon" unicode=";" horiz-adv-x="338" 
d="M126 514h86v-107h-86v107zM126 106h85.999v-128c0 -25.333 -7.33301 -45.166 -22 -59.499s-36 -21.5 -64 -21.5v45c12.667 1.33301 21.834 4.66602 27.501 9.99902s8.5 14 8.5 26v22h-36v106z" />
    <glyph glyph-name="semicolon" unicode="&#x37e;" horiz-adv-x="338" 
d="M126 514h86v-107h-86v107zM126 106h85.999v-128c0 -25.333 -7.33301 -45.166 -22 -59.499s-36 -21.5 -64 -21.5v45c12.667 1.33301 21.834 4.66602 27.501 9.99902s8.5 14 8.5 26v22h-36v106z" />
    <glyph glyph-name="less" unicode="&#x3c;" horiz-adv-x="833" 
d="M205 298l499 -202v-53l-575 235v40l575 236v-53z" />
    <glyph glyph-name="equal" unicode="=" horiz-adv-x="833" 
d="M709 183h-585v48h585v-48zM709 365h-585v48h585v-48z" />
    <glyph glyph-name="greater" unicode="&#x3e;" horiz-adv-x="833" 
d="M704 278l-575 -235v53l499 202l-499 203v53l575 -236v-40z" />
    <glyph glyph-name="question" unicode="?" horiz-adv-x="519" 
d="M187 93h81v-93h-81v93zM187 257c0 18.667 2.66895 34.4961 8.00195 47.4961s12.833 24.167 22.5 33.5s21.667 17.666 36 24.999s30.5 15 48.5 23c22 9.33301 40.833 18 56.5 26s27.5 17.667 35.5 29c12 18 18 53 18 105c0 24 -2 43.333 -6 58s-10.667 26.334 -20 35.001
s-21.5 14.5 -36.5 17.5s-33.167 4.5 -54.5 4.5c-40.667 0 -73.334 -1 -98.001 -3s-42 -6.66699 -52 -14c-10.667 -8 -18 -20.5 -22 -37.5s-6 -39.167 -6 -66.5v-17.5c0 -6.33301 0.333008 -13.166 1 -20.499h-80v72c0 32 4.5 58.333 13.5 79s23 37.167 42 49.5
s43.167 21 72.5 26s64 7.5 104 7.5s74 -2.66699 102 -8s50.667 -15.166 68 -29.499s30 -34 38 -59s12 -56.833 12 -95.5c0 -28 -1.16699 -52.667 -3.5 -74s-6.83301 -39.833 -13.5 -55.5s-15.5 -29.167 -26.5 -40.5s-25.167 -21 -42.5 -29l-58.5 -26
c-17 -7.33301 -31.333 -14.666 -43 -21.999s-20.334 -15.666 -26.001 -24.999s-8.5 -21.333 -8.5 -36v-37h-81v58z" />
    <glyph glyph-name="at" unicode="@" horiz-adv-x="1000" 
d="M663 469h46.0029l-68 -274c-2.66699 -11.333 -4.66699 -20.5 -6 -27.5s-2 -12.833 -2 -17.5c0 -14 4.5 -25 13.5 -33s21.833 -12 38.5 -12c16 0 32.833 3.33301 50.5 10s35.167 16.667 52.5 30c31.333 24.667 55.833 57.5 73.5 98.5s26.5 87.5 26.5 139.5
c0 40 -8.33301 77.333 -25 112s-40 64.667 -70 90s-66.167 45.166 -108.5 59.499s-89.5 21.5 -141.5 21.5c-114 0 -208.667 -32.333 -284 -97c-96.667 -82.667 -145 -189 -145 -319c0 -56.667 9.5 -106.167 28.5 -148.5s49.167 -80.166 90.5 -113.499
c32.667 -26.667 72 -47.5 118 -62.5s95.333 -22.5 148 -22.5c56.667 0 111.5 8.16699 164.5 24.5s101.5 39.5 145.5 69.5l19 -27c-96 -72 -202.333 -108 -319 -108c-124.667 0 -226 30 -304 90c-50.667 38.667 -88 83.167 -112 133.5s-36 109.166 -36 176.499
c0 66.667 14 128.834 42 186.501s69 108.834 123 153.501c87.333 72 194.666 108 321.999 108c54.667 0 105.5 -7.33301 152.5 -22s86.833 -34.667 119.5 -60c42 -32.667 73.667 -69.834 95 -111.501s32 -87.167 32 -136.5c0 -56.667 -10.167 -107.334 -30.5 -152.001
s-49.833 -82.334 -88.5 -113.001c-46 -36 -96.333 -54 -151 -54c-62.667 0 -94 24.667 -94 74c0 2 0.166992 4.16699 0.5 6.5s0.5 4.83301 0.5 7.5c-16.667 -28.667 -37.334 -50.5 -62.001 -65.5s-52 -22.5 -82 -22.5c-50 0 -88 13.667 -114 41s-39 67 -39 119
c0 38 6 73.333 18 106s28.167 60.834 48.5 84.501s44.333 42.334 72 56.001s57.167 20.5 88.5 20.5c61.333 0 102.666 -26.667 123.999 -80zM621.003 350c-6 30.667 -18.335 54.501 -37.002 71.501s-41.334 25.5 -68.001 25.5c-25.333 0 -48.666 -5.83301 -69.999 -17.5
s-39.666 -27.834 -54.999 -48.501s-27.166 -45 -35.499 -73s-12.5 -58.333 -12.5 -91c0 -36.667 8.83301 -65 26.5 -85s42.5 -30 74.5 -30c34.667 0 65.5 11.5 92.5 34.5s45.167 53.833 54.5 92.5z" />
    <glyph glyph-name="A" unicode="A" horiz-adv-x="692" 
d="M504 258l-145 392h-26l-144 -392h315zM280 727h132l270 -727h-83l-69 186h-368l-68 -186h-83z" />
    <glyph glyph-name="B" unicode="B" horiz-adv-x="701" 
d="M431 413c23.333 0 42.167 2 56.5 6s25.333 10.833 33 20.5s12.667 22.5 15 38.5s3.5 35.667 3.5 59c0 25.333 -1.5 45.5 -4.5 60.5s-9.5 26.333 -19.5 34s-24.5 12.667 -43.5 15s-44.167 3.5 -75.5 3.5h-227v-237h262zM434.001 76c29.333 0 52.167 2.33105 68.5 6.99805
s28.5 12.5 36.5 23.5s12.833 25.333 14.5 43s2.5 39.167 2.5 64.5c0 28.667 -2.33301 51.334 -7 68.001s-13.5 29.334 -26.5 38.001s-30.667 14 -53 16s-50.833 3 -85.5 3h-215v-263h265zM90.002 726.998l337.998 -0.00390625c39.333 0 71.5 -2.66699 96.5 -8
s44.833 -14.666 59.5 -27.999s24.667 -31.666 30 -54.999s8 -53.333 8 -90c0 -24.667 -1 -46.167 -3 -64.5s-6.16699 -34.166 -12.5 -47.499s-15 -24.333 -26 -33s-25.5 -15.334 -43.5 -20.001c21.333 -5.33301 38.666 -12.666 51.999 -21.999s23.833 -21.166 31.5 -35.499
s12.834 -31.333 15.501 -51s4 -42.834 4 -69.501c0 -41.333 -3.66699 -75.166 -11 -101.499s-20.166 -47 -38.499 -62s-42.666 -25.333 -72.999 -31s-68.5 -8.5 -114.5 -8.5h-313v727z" />
    <glyph glyph-name="C" unicode="C" horiz-adv-x="683" 
d="M65 487c0 46 4.16406 84.999 12.4971 116.999s22 57.667 41 77s43.833 33.333 74.5 42s68.667 13 114 13h85c42.667 0 79.334 -3.5 110.001 -10.5s55.834 -18.5 75.501 -34.5s34.167 -37.167 43.5 -63.5s14 -59.166 14 -98.499v-32h-83v20
c0 29.333 -2.83301 53.333 -8.5 72s-15 33.167 -28 43.5s-30.167 17.5 -51.5 21.5s-47.333 6 -78 6h-56c-33.333 0 -61.666 -1.83301 -84.999 -5.5s-43.666 -13.5 -60.999 -29.5c-17.333 -16.667 -27.666 -37.667 -30.999 -63s-5 -57 -5 -95v-207
c0 -38 1.66699 -69.667 5 -95s13.666 -46.333 30.999 -63c18 -17.333 38.833 -27.5 62.5 -30.5s51.5 -4.5 83.5 -4.5h56c32 0 58.667 2 80 6s38.5 11.667 51.5 23s22.167 27 27.5 47s8 45.667 8 77v17c0 6 -0.333008 12 -1 18h83v-48c0 -42 -4.33301 -76.833 -13 -104.5
s-22.667 -49.667 -42 -66s-44.333 -28 -75 -35s-68.334 -10.5 -113.001 -10.5h-85c-45.333 0 -83.333 4.33301 -114 13s-55.5 22.667 -74.5 42s-32.667 45 -41 77s-12.5 71 -12.5 117v247z" />
    <glyph glyph-name="D" unicode="D" horiz-adv-x="750" 
d="M88 727h351c46 0 84.667 -4.33301 116 -13s56.666 -22.5 75.999 -41.5s33.333 -44 42 -75s13 -68.833 13 -113.5v-240c0 -44.667 -4.33301 -82.5 -13 -113.5s-22.667 -56.167 -42 -75.5s-44.666 -33.333 -75.999 -42s-70 -13 -116 -13h-351v727zM426 72
c34 0 62.166 2.5 84.499 7.5s40.333 13.833 54 26.5s23.334 30 29.001 52s8.5 50.333 8.5 85v235c0 35.333 -2.66699 64.5 -8 87.5s-14.666 41.167 -27.999 54.5s-31.333 22.5 -54 27.5s-51.334 7.5 -86.001 7.5h-258v-583h258z" />
    <glyph glyph-name="E" unicode="E" horiz-adv-x="639" 
d="M88 727h510v-77h-430v-238h418v-74h-418v-262h430v-76h-510v727z" />
    <glyph glyph-name="F" unicode="F" horiz-adv-x="593" 
d="M88 727h454v-77h-374v-238h363v-74h-363v-338h-80v727z" />
    <glyph glyph-name="G" unicode="G" horiz-adv-x="734" 
d="M60 487c0 46.667 4.49707 85.8311 13.4971 117.498s23.833 57.334 44.5 77.001s47.667 33.667 81 42s74.333 12.5 123 12.5h92c88.667 0 154.5 -14.833 197.5 -44.5s64.5 -77.5 64.5 -143.5v-31h-83v9c0 27.333 -3.5 49.666 -10.5 66.999s-18 31 -33 41
s-34 16.833 -57 20.5s-50.833 5.5 -83.5 5.5h-64c-36 0 -67.167 -1.66699 -93.5 -5s-49.5 -13.666 -69.5 -30.999c-18 -15.333 -28.833 -35.5 -32.5 -60.5s-5.5 -57.167 -5.5 -96.5v-207c0 -39.333 1.83301 -71.5 5.5 -96.5s14.5 -45.167 32.5 -60.5
c20.667 -17.333 44 -27.666 70 -30.999s57 -5 93 -5h64c32.667 0 60.834 1.5 84.501 4.5s44.834 12.167 63.501 27.5c16.667 14 26.834 32.5 30.501 55.5s5.5 52.5 5.5 88.5v45h-202v74h285v-122c0 -46.667 -4.5 -85.834 -13.5 -117.501s-23.833 -57.334 -44.5 -77.001
s-47.667 -33.667 -81 -42s-74.333 -12.5 -123 -12.5h-92c-48.667 0 -89.667 4.16699 -123 12.5s-60.333 22.333 -81 42s-35.5 45.334 -44.5 77.001s-13.5 70.834 -13.5 117.501v247z" />
    <glyph glyph-name="H" unicode="H" horiz-adv-x="755" 
d="M88 727h80v-314h419v314h80v-727h-80v337h-419v-337h-80v727z" />
    <glyph glyph-name="I" unicode="I" horiz-adv-x="257" 
d="M88 727h81v-727h-81v727z" />
    <glyph glyph-name="J" unicode="J" horiz-adv-x="590" 
d="M104 255l0.00195312 -12.002c0 -35.333 1.5 -64.333 4.5 -87s9.16699 -40.5 18.5 -53.5s22.666 -22.167 39.999 -27.5s40.666 -8 69.999 -8h58c29.333 0 52.833 2.66699 70.5 8s31.167 14.666 40.5 27.999s15.333 31.333 18 54s4 51.334 4 86.001v484h81v-508
c0 -41.333 -3.83301 -76.5 -11.5 -105.5s-19.834 -52.5 -36.501 -70.5s-38.167 -31.167 -64.5 -39.5s-57.833 -12.5 -94.5 -12.5h-72c-39.333 0 -72.166 4.33301 -98.499 13s-47.5 22.834 -63.5 42.501s-27.5 45.334 -34.5 77.001s-10.5 70.5 -10.5 116.5v15h81z" />
    <glyph glyph-name="K" unicode="K" horiz-adv-x="669" 
d="M88 727h80v-308h62l295 308h106l-335 -347l378 -380h-110l-334 341h-62v-341h-80v727z" />
    <glyph glyph-name="L" unicode="L" horiz-adv-x="597" 
d="M88 727h79v-651h412v-76h-491v727z" />
    <glyph glyph-name="M" unicode="M" horiz-adv-x="937" 
d="M88 727h132l249 -648l247 648h133v-727h-80v659l-251 -659h-99l-251 659v-659h-80v727z" />
    <glyph glyph-name="N" unicode="N" horiz-adv-x="775" 
d="M88 727h124l394 -649v649h80v-727h-124l-394 650v-650h-80v727z" />
    <glyph glyph-name="O" unicode="O" horiz-adv-x="745" 
d="M350 660c-36 0 -67 -1.66992 -93 -5.00293s-49.333 -13.666 -70 -30.999c-18 -15.333 -29 -35.666 -33 -60.999s-6 -57.666 -6 -96.999v-206c0 -39.333 2 -71.5 6 -96.5s15 -45.167 33 -60.5c20.667 -17.333 44 -27.666 70 -30.999s57 -5 93 -5h45
c36 0 67.167 1.66699 93.5 5s49.833 13.666 70.5 30.999c18 15.333 28.833 35.666 32.5 60.999s5.5 57.333 5.5 96v207c0 38.667 -2 70.834 -6 96.501s-15 46.167 -33 61.5c-20 17.333 -43.167 27.5 -69.5 30.5s-57.5 4.5 -93.5 4.5h-45zM65 486.997
c0 46.667 4.49902 85.8311 13.499 117.498s23.833 57.334 44.5 77.001s47.667 33.667 81 42s74.333 12.5 123 12.5h92c48.667 0 89.834 -4.16699 123.501 -12.5s60.667 -22.166 81 -41.499s35 -44.833 44 -76.5s13.5 -71.167 13.5 -118.5v-247
c0 -46.667 -4.5 -85.834 -13.5 -117.501s-23.833 -57.334 -44.5 -77.001s-47.667 -33.667 -81 -42s-74.333 -12.5 -123 -12.5h-92c-48.667 0 -89.667 4.16699 -123 12.5s-60.333 22.333 -81 42s-35.5 45.334 -44.5 77.001s-13.5 70.834 -13.5 117.501v247z" />
    <glyph glyph-name="P" unicode="P" horiz-adv-x="655" 
d="M525 558c0 20.667 -2.49902 37 -7.49902 49s-12.833 21.167 -23.5 27.5s-24.334 10.5 -41.001 12.5s-36.667 3 -60 3h-225v-291h225c22 0 41.333 1 58 3s30.5 6.16699 41.5 12.5s19.167 15.5 24.5 27.5s8 28.333 8 49v107zM88.001 727h306c38.667 0 71.667 -2.5 99 -7.5
s49.666 -13.833 66.999 -26.5s29.833 -29.667 37.5 -51s11.5 -48.333 11.5 -81v-110c0 -33.333 -3.83301 -60.833 -11.5 -82.5s-20 -39 -37 -52s-39.167 -22 -66.5 -27s-60.666 -7.5 -99.999 -7.5h-226v-282h-80v727z" />
    <glyph glyph-name="Q" unicode="Q" horiz-adv-x="745" 
d="M597 467c0 38.667 -2 70.8301 -6 96.4971s-15 46.167 -33 61.5c-20 17.333 -43.167 27.5 -69.5 30.5s-57.5 4.5 -93.5 4.5h-45c-36 0 -67 -1.66699 -93 -5s-49.333 -13.666 -70 -30.999c-18 -15.333 -29 -35.666 -33 -60.999s-6 -57.666 -6 -96.999v-206
c0 -39.333 2 -71.5 6 -96.5s15 -45.167 33 -60.5c20.667 -17.333 44 -27.666 70 -30.999s57 -5 93 -5h63c32 0 58.333 0.833008 79 2.5s35.667 5.16699 45 10.5l-137 137l51 52l139 -137c2 12 3.66699 27.167 5 45.5s2 40.166 2 65.499v224zM65 486.996
c0 46.667 4.49902 85.8291 13.499 117.496s23.833 57.334 44.5 77.001s47.667 33.667 81 42s74.333 12.5 123 12.5h92c48.667 0 89.834 -4.16699 123.501 -12.5s60.667 -22.166 81 -41.499s35 -44.833 44 -76.5s13.5 -71.167 13.5 -118.5v-247c0 -38 -2.16699 -70 -6.5 -96
s-14.5 -47.667 -30.5 -65l44 -44l-53 -54l-46 47c-16 -16 -37.833 -26.167 -65.5 -30.5s-62.5 -6.5 -104.5 -6.5h-92c-48.667 0 -89.667 4.16699 -123 12.5s-60.333 22.333 -81 42s-35.5 45.334 -44.5 77.001s-13.5 70.834 -13.5 117.501v247z" />
    <glyph glyph-name="R" unicode="R" horiz-adv-x="699" 
d="M168 650l-0.000976562 -290.998h232c24.667 0 46.334 1 65.001 3s34 6.66699 46 14s21 17.666 27 30.999s9 31.666 9 54.999v85c0 23.333 -2.83301 41.833 -8.5 55.5s-14.5 24 -26.5 31s-27.167 11.5 -45.5 13.5s-40.5 3 -66.5 3h-232zM87.999 727.002h328.001
c38.667 0 71.667 -2.5 99 -7.5s49.666 -13.833 66.999 -26.5s29.833 -29.667 37.5 -51s11.5 -48.333 11.5 -81v-110c0 -76 -31.333 -119.333 -94 -130c36 -8.66699 60.667 -24.167 74 -46.5s20 -55.5 20 -99.5v-175h-84v150c0 26.667 -1.83301 48.5 -5.5 65.5
s-10.167 30.5 -19.5 40.5s-21.833 17 -37.5 21s-35.167 6 -58.5 6h-258v-283h-80v727z" />
    <glyph glyph-name="S" unicode="S" horiz-adv-x="713" 
d="M149 237l-0.000976562 -14.002c0 -38 2.66699 -68.333 8 -91s16.666 -38.667 33.999 -48c16 -9.33301 40.833 -14.666 74.5 -15.999s77.167 -2 130.5 -2c38 0 69 2.33301 93 7s42 13.667 54 27c12 12.667 18 45 18 97c0 22.667 -0.666992 41.667 -2 57
s-4.66602 27.833 -9.99902 37.5s-13.333 17 -24 22s-25.667 8.16699 -45 9.5l-224 18c-32 2.66699 -59.333 7.66699 -82 15s-41.167 18.333 -55.5 33s-24.666 33.834 -30.999 57.501s-9.5 52.834 -9.5 87.501c0 39.333 3.83301 72.333 11.5 99s21.834 49 42.501 67
c19.333 17.333 45.5 27.666 78.5 30.999s73.833 5 122.5 5h26c26.667 0 51.334 -0.333008 74.001 -1s43.5 -2.5 62.5 -5.5s36.667 -7.83301 53 -14.5s31.166 -15.667 44.499 -27c27.333 -23.333 41 -67 41 -131v-17c0 -6 -0.333008 -12 -1 -18h-81v18
c0 23.333 -1.33301 42.666 -4 57.999s-8 27 -16 35c-12.667 12.667 -35.334 20.334 -68.001 23.001s-77 4 -133 4c-32.667 0 -59.834 -1.16699 -81.501 -3.5s-39 -7.66602 -52 -15.999s-22.333 -21 -28 -38s-8.5 -40.167 -8.5 -69.5c0 -21.333 1.33301 -38.833 4 -52.5
s7.5 -24.834 14.5 -33.501s16.333 -15.167 28 -19.5s26.5 -7.16602 44.5 -8.49902l229 -19c30.667 -2.66699 56.334 -8.16699 77.001 -16.5s37.334 -20 50.001 -35s21.667 -33.667 27 -56s8 -49.5 8 -81.5c0 -38 -2.33301 -70.5 -7 -97.5s-15.667 -50.167 -33 -69.5
c-11.333 -13.333 -24.666 -23.5 -39.999 -30.5s-32.5 -12.333 -51.5 -16s-40.333 -5.83398 -64 -6.50098s-49.834 -1 -78.501 -1h-36c-47.333 0 -88.333 2.16699 -123 6.5s-64.334 17.5 -89.001 39.5c-19.333 16.667 -33 38.5 -41 65.5s-12 60.167 -12 99.5v18
c0 6 0.333008 12 1 18h80z" />
    <glyph glyph-name="T" unicode="T" horiz-adv-x="522" 
d="M-11 727h544v-77h-232v-650h-81v650h-231v77z" />
    <glyph glyph-name="U" unicode="U" horiz-adv-x="748" 
d="M162 727l0.00292969 -476.999c0 -35.333 1.66699 -64.333 5 -87s13 -41.334 29 -56.001c17.333 -15.333 37.166 -24.5 59.499 -27.5s49.166 -4.5 80.499 -4.5h76c31.333 0 58.333 1.5 81 4.5s42.667 12.167 60 27.5c15.333 14 24.666 32.333 27.999 55s5 52 5 88v477h81
v-487c0 -46.667 -4.33301 -85.834 -13 -117.501s-22.667 -57.334 -42 -77.001s-45 -33.667 -77 -42s-71 -12.5 -117 -12.5h-88c-46 0 -85 4.16699 -117 12.5s-57.667 22.333 -77 42s-33.333 45.334 -42 77.001s-13 70.834 -13 117.501v487h81z" />
    <glyph glyph-name="V" unicode="V" horiz-adv-x="650" 
d="M87 727l232 -652l233 652h85l-266 -727h-104l-266 727h86z" />
    <glyph glyph-name="W" unicode="W" horiz-adv-x="1007" 
d="M113 727l166 -629l167 629h114l168 -629l166 629h84l-198 -727h-103l-174 640l-171 -640h-107l-195 727h83z" />
    <glyph glyph-name="X" unicode="X" horiz-adv-x="637" 
d="M278 382l-257 345h93l205 -285l204 285h94l-257 -344l283 -383h-91l-232 324l-235 -324h-92z" />
    <glyph glyph-name="Y" unicode="Y" horiz-adv-x="595" 
d="M258 0v322l-301 405h95l245 -339l245 339h95l-300 -404v-323h-79z" />
    <glyph glyph-name="Z" unicode="Z" horiz-adv-x="650" 
d="M47 87l467 568h-446v72h531v-85l-464 -566h464v-76h-552v87z" />
    <glyph glyph-name="bracketleft" unicode="[" horiz-adv-x="324" 
d="M282 727v-77h-130v-573h130v-77h-208v727h208z" />
    <glyph glyph-name="backslash" unicode="\" horiz-adv-x="266" 
d="M235 -93l-259 829h69l258 -829h-68z" />
    <glyph glyph-name="bracketright" unicode="]" horiz-adv-x="324" 
d="M250 0h-208v77h130v573h-130v77h208v-727z" />
    <glyph glyph-name="asciicircum" unicode="^" horiz-adv-x="1000" 
d="M793 440h-70l-223 222l-224 -222h-70l260 272h68z" />
    <glyph glyph-name="underscore" unicode="_" 
d="M500 -236h-500v49h500v-49z" />
    <glyph glyph-name="grave" unicode="`" 
d="M135 745h74l102 -170h-45z" />
    <glyph glyph-name="a" unicode="a" horiz-adv-x="565" 
d="M415 185c0 25.333 -13 43.5039 -39 54.5039s-65 16.5 -117 16.5c-24 0 -44 -1.33301 -60 -4s-28.833 -7.33398 -38.5 -14.001s-16.5 -15.834 -20.5 -27.501s-6 -26.834 -6 -45.501c0 -20.667 2 -37.5 6 -50.5s11 -23.333 21 -31s23.667 -12.834 41 -15.501s39 -4 65 -4
c50 0 87.167 5.83301 111.5 17.5s36.5 28.167 36.5 49.5v54zM419 54.0039c-12.667 -22.667 -32.166 -38.501 -58.499 -47.501s-60.833 -13.5 -103.5 -13.5c-37.333 0 -69 2.16699 -95 6.5s-47 12.5 -63 24.5s-27.5 28.667 -34.5 50s-10.5 48.666 -10.5 81.999
c0 32.667 2.83301 59.834 8.5 81.501s16.5 39.167 32.5 52.5c14 11.333 33.833 19 59.5 23s58.5 6 98.5 6c42 0 76.167 -3.5 102.5 -10.5s46.166 -20.167 59.499 -39.5v89c0 22.667 -2 40.667 -6 54s-11.5 23.333 -22.5 30s-26 11 -45 13s-43.5 3 -73.5 3
c-21.333 0 -39.5 -0.833008 -54.5 -2.5s-27.333 -5.16699 -37 -10.5s-16.667 -12.666 -21 -21.999s-6.5 -21.333 -6.5 -36h-76v12c0 46.667 15.333 78.667 46 96s78.667 26 144 26c48 0 87.333 -2 118 -6s53.667 -11.667 69 -23c19.333 -15.333 31 -33.5 35 -54.5
s6 -46.833 6 -77.5v-360h-69z" />
    <glyph glyph-name="b" unicode="b" horiz-adv-x="574" 
d="M156 215c0 -54 12.333 -92.999 37 -116.999s64.667 -36 120 -36c28 0 50.167 2.5 66.5 7.5s28.666 13.167 36.999 24.5s13.833 26.666 16.5 45.999s4 43.666 4 72.999v88c0 28.667 -1.33301 52.834 -4 72.501s-8.16699 35.167 -16.5 46.5s-20.666 19.5 -36.999 24.5
s-38.5 7.5 -66.5 7.5c-55.333 0 -95.333 -12 -120 -36s-37 -63 -37 -117v-84zM80 727.001h76v-286c15.333 30 35.666 50.833 60.999 62.5s58.333 17.5 99 17.5c37.333 0 68.666 -3.66699 93.999 -11s45.833 -19.166 61.5 -35.499s27 -37.333 34 -63
s10.5 -56.834 10.5 -93.501v-122c0 -36.667 -3.5 -67.834 -10.5 -93.501s-18.333 -46.667 -34 -63s-36.167 -28.166 -61.5 -35.499s-56.666 -11 -93.999 -11c-43.333 0 -78.166 6.66699 -104.499 20s-45.833 35.333 -58.5 66v-79h-73v727z" />
    <glyph glyph-name="c" unicode="c" horiz-adv-x="565" 
d="M265 -7c-38.667 0 -71.167 3.49805 -97.5 10.498s-47.666 18.5 -63.999 34.5s-28 37 -35 63s-10.5 57.667 -10.5 95v122c0 37.333 3.5 69 10.5 95s18.5 47 34.5 63s37.167 27.5 63.5 34.5s58.833 10.5 97.5 10.5h36c70.667 0 122.5 -13.667 155.5 -41
s50.167 -73.333 51.5 -138h-79c-0.666992 22.667 -3.5 41 -8.5 55s-12.5 25 -22.5 33s-23 13.5 -39 16.5s-35.333 4.5 -58 4.5h-36c-28 0 -50.5 -2.16699 -67.5 -6.5s-29.833 -12.166 -38.5 -23.499s-14.334 -26.666 -17.001 -45.999s-4 -44 -4 -74v-88
c0 -30 1.33301 -54.667 4 -74s8.33398 -34.833 17.001 -46.5s21.5 -19.667 38.5 -24s39.5 -6.5 67.5 -6.5h36c23.333 0 43.166 1.66699 59.499 5s29.5 9.5 39.5 18.5s17.333 21.167 22 36.5s7 35 7 59v9h79v-10c0 -68 -16.167 -116.167 -48.5 -144.5
s-84.833 -42.5 -157.5 -42.5h-36z" />
    <glyph glyph-name="d" unicode="d" horiz-adv-x="574" 
d="M418 299c0 54 -12.333 92.999 -37 116.999s-64.667 36 -120 36c-28 0 -50.167 -2.5 -66.5 -7.5s-28.666 -13.167 -36.999 -24.5s-13.833 -26.833 -16.5 -46.5s-4 -43.834 -4 -72.501v-88c0 -29.333 1.33301 -53.666 4 -72.999s8.16699 -34.666 16.5 -45.999
s20.666 -19.5 36.999 -24.5s38.5 -7.5 66.5 -7.5c55.333 0 95.333 12 120 36s37 63 37 117v84zM421 78.999c-12.667 -30.667 -32 -52.667 -58 -66s-60.667 -20 -104 -20c-37.333 0 -68.833 3.66699 -94.5 11s-46.334 19.166 -62.001 35.499s-27 37.333 -34 63
s-10.5 56.834 -10.5 93.501v122c0 36.667 3.5 67.834 10.5 93.501s18.333 46.667 34 63s36.334 28.166 62.001 35.499s57.167 11 94.5 11c40.667 0 73.5 -5.83301 98.5 -17.5s45.167 -32.5 60.5 -62.5v286h76v-727h-73v79z" />
    <glyph glyph-name="e" unicode="e" horiz-adv-x="565" 
d="M428 307v20c0 25.333 -2.16699 46 -6.5 62s-11.5 28.667 -21.5 38s-23.167 15.666 -39.5 18.999s-36.5 5 -60.5 5h-36c-24 0 -44.167 -1.66699 -60.5 -5s-29.5 -9.66602 -39.5 -18.999s-17 -22 -21 -38s-6 -36.667 -6 -62v-20h291zM265 -7
c-38.667 0 -71.166 3.49805 -97.499 10.498s-47.666 18.5 -63.999 34.5s-28 37 -35 63s-10.5 57.667 -10.5 95v122c0 37.333 3.5 69 10.5 95s18.5 47 34.5 63s37.167 27.5 63.5 34.5s58.833 10.5 97.5 10.5h36c38.667 0 71.167 -3.5 97.5 -10.5s47.666 -18.5 63.999 -34.5
s28 -37 35 -63s10.5 -57.667 10.5 -95v-78h-370c-0.666992 -8 -1 -15.667 -1 -23v-21c0 -27.333 2 -49.666 6 -66.999s10.833 -31 20.5 -41s22.667 -16.833 39 -20.5s37.166 -5.5 62.499 -5.5h36c20.667 0 38.5 1.16699 53.5 3.5s27.667 6.83301 38 13.5
s18.333 15.834 24 27.501s9.5 26.5 11.5 44.5h79c-4 -57.333 -22.5 -98 -55.5 -122s-82.833 -36 -149.5 -36h-36z" />
    <glyph glyph-name="f" unicode="f" horiz-adv-x="336" 
d="M23 514l72 -0.000976562c-0.666992 6 -1 12 -1 18v17c0 32.667 2.66699 60.334 8 83.001s14 41 26 55s27.833 24.167 47.5 30.5s43.834 9.5 72.501 9.5c13.333 0 27 -0.333008 41 -1s28.667 -1.66699 44 -3v-69c-13.333 0.666992 -25.333 1.16699 -36 1.5
s-20 0.5 -28 0.5c-22.667 0 -40.5 -1.66699 -53.5 -5s-22.833 -9.16602 -29.5 -17.499s-10.834 -19.333 -12.501 -33s-2.5 -30.834 -2.5 -51.501v-35h162v-65h-162v-449h-76v449h-72v65z" />
    <glyph glyph-name="g" unicode="g" horiz-adv-x="588" 
d="M433 299c0 54 -12.333 92.999 -37 116.999s-64.667 36 -120 36c-28 0 -50.167 -2.5 -66.5 -7.5s-28.833 -13.167 -37.5 -24.5s-14.334 -26.833 -17.001 -46.5s-4 -43.834 -4 -72.501v-88c0 -29.333 1.33301 -53.666 4 -72.999s8.33398 -34.666 17.001 -45.999
s21.167 -19.5 37.5 -24.5s38.5 -7.5 66.5 -7.5c55.333 0 95.333 12 120 36s37 63 37 117v84zM509 5.99902c0 -37.333 -3.49902 -69 -10.499 -95s-18.333 -47 -34 -63s-36.334 -27.5 -62.001 -34.5s-57.167 -10.5 -94.5 -10.5h-35c-65.333 0 -113.833 12 -145.5 36
s-49.5 64.667 -53.5 122h77c2 -18 5.66699 -32.833 11 -44.5s13 -20.667 23 -27s22.333 -10.666 37 -12.999s32 -3.5 52 -3.5h34c42 0 73.333 6.66699 94 20s31 38 31 74v106c-15.333 -30 -35.666 -50.833 -60.999 -62.5s-58.333 -17.5 -99 -17.5
c-37.333 0 -68.666 3.66699 -93.999 11s-45.833 19.166 -61.5 35.499s-27 37.333 -34 63s-10.5 56.834 -10.5 93.501v122c0 36.667 3.5 67.834 10.5 93.501s18.333 46.667 34 63s36.167 28.166 61.5 35.499s56.666 11 93.999 11c43.333 0 78.166 -6.83301 104.499 -20.5
s45.833 -35.834 58.5 -66.501v80h73v-508z" />
    <glyph glyph-name="h" unicode="h" horiz-adv-x="576" 
d="M79 727l73.001 -0.000976562v-283c12.667 26.667 32.667 46.167 60 58.5s63.333 18.5 108 18.5c34 0 62.667 -3.33301 86 -10s42.166 -17.334 56.499 -32.001s24.5 -33.667 30.5 -57s9 -51.666 9 -84.999v-337h-76v321c0 24.667 -1.5 45.5 -4.5 62.5
s-8.66699 30.5 -17 40.5s-20 17.167 -35 21.5s-34.833 6.5 -59.5 6.5c-54 0 -93.333 -12.167 -118 -36.5s-37 -63.166 -37 -116.499v-299h-76v727z" />
    <glyph glyph-name="i" unicode="i" horiz-adv-x="234" 
d="M79 727h76v-86h-76v86zM79 514h76v-514h-76v514z" />
    <glyph glyph-name="j" unicode="j" horiz-adv-x="248" 
d="M171 -75c0 -81.333 -34.667 -122 -104 -122c-9.33301 0 -21.333 1 -36 3v60h26c17.333 0 27.833 8.16699 31.5 24.5s5.5 41.5 5.5 75.5v548h77v-589zM94 727h77v-86h-77v86z" />
    <glyph glyph-name="k" unicode="k" horiz-adv-x="484" 
d="M79 727h76v-413h23l168 200h87l-194 -229l232 -285h-96l-197 244h-23v-244h-76v727z" />
    <glyph glyph-name="l" unicode="l" horiz-adv-x="234" 
d="M79 727h76v-727h-76v727z" />
    <glyph glyph-name="m" unicode="m" horiz-adv-x="884" 
d="M90 514l74.001 -0.00195312v-70c21.333 51.333 72.666 77 153.999 77c42 0 75.5 -6.33301 100.5 -19s43.833 -34.667 56.5 -66c15.333 30.667 35.333 52.5 60 65.5s56.667 19.5 96 19.5c34 0 62.5 -3.16699 85.5 -9.5s41.333 -16.666 55 -30.999s23.5 -33.333 29.5 -57
s9 -52.5 9 -86.5v-337h-76v313c0 26.667 -1.33301 48.834 -4 66.501s-7.83398 31.834 -15.501 42.501s-18.667 18.334 -33 23.001s-33.166 7 -56.499 7c-48.667 0 -83.5 -12.333 -104.5 -37s-31.5 -63.334 -31.5 -116.001v-299h-74v348c0 20 -1.66699 36.667 -5 50
s-9 24 -17 32s-18.833 13.667 -32.5 17s-31.167 5 -52.5 5c-49.333 0 -85.333 -12.333 -108 -37s-34 -63.334 -34 -116.001v-299h-76v514z" />
    <glyph glyph-name="n" unicode="n" horiz-adv-x="576" 
d="M79 514l73.001 -0.000976562v-70c12.667 26.667 32.667 46.167 60 58.5s63.333 18.5 108 18.5c34 0 62.667 -3.33301 86 -10s42.166 -17.334 56.499 -32.001s24.5 -33.667 30.5 -57s9 -51.666 9 -84.999v-337h-76v321c0 24.667 -1.5 45.5 -4.5 62.5
s-8.66699 30.5 -17 40.5s-20 17.167 -35 21.5s-34.833 6.5 -59.5 6.5c-54 0 -93.333 -12.167 -118 -36.5s-37 -63.166 -37 -116.499v-299h-76v514z" />
    <glyph glyph-name="o" unicode="o" horiz-adv-x="565" 
d="M428 301c0 30 -1.33301 54.667 -4 74s-8.5 34.666 -17.5 45.999s-22 19.166 -39 23.499s-39.5 6.5 -67.5 6.5h-36c-28 0 -50.5 -2.16699 -67.5 -6.5s-29.833 -12.166 -38.5 -23.499s-14.334 -26.666 -17.001 -45.999s-4 -44 -4 -74v-88c0 -30 1.33301 -54.667 4 -74
s8.33398 -34.833 17.001 -46.5s21.5 -19.667 38.5 -24s39.5 -6.5 67.5 -6.5h36c28 0 50.5 2.16699 67.5 6.5s30 12.333 39 24s14.833 27.167 17.5 46.5s4 44 4 74v88zM265 -7c-38.667 0 -71.167 3.5 -97.5 10.5s-47.666 18.5 -63.999 34.5s-28 37 -35 63
s-10.5 57.667 -10.5 95v122c0 37.333 3.5 69 10.5 95s18.5 47 34.5 63s37.167 27.5 63.5 34.5s58.833 10.5 97.5 10.5h36c38.667 0 71.167 -3.5 97.5 -10.5s47.666 -18.5 63.999 -34.5s28 -37 35 -63s10.5 -57.667 10.5 -95v-122c0 -37.333 -3.5 -69 -10.5 -95
s-18.5 -47 -34.5 -63s-37.167 -27.5 -63.5 -34.5s-58.833 -10.5 -97.5 -10.5h-36z" />
    <glyph glyph-name="p" unicode="p" horiz-adv-x="574" 
d="M156 215c0 -54 12.333 -92.999 37 -116.999s64.667 -36 120 -36c28 0 50.167 2.5 66.5 7.5s28.666 13.167 36.999 24.5s13.833 26.666 16.5 45.999s4 43.666 4 72.999v88c0 28.667 -1.33301 52.834 -4 72.501s-8.16699 35.167 -16.5 46.5s-20.666 19.5 -36.999 24.5
s-38.5 7.5 -66.5 7.5c-55.333 0 -95.333 -12 -120 -36s-37 -63 -37 -117v-84zM153 514.001v-80.001c12.667 30.667 32.167 52.834 58.5 66.501s61.166 20.5 104.499 20.5c37.333 0 68.666 -3.66699 93.999 -11s45.833 -19.166 61.5 -35.499s27 -37.333 34 -63
s10.5 -56.834 10.5 -93.501v-122c0 -36.667 -3.5 -67.834 -10.5 -93.501s-18.333 -46.667 -34 -63s-36.167 -28.166 -61.5 -35.499s-56.666 -11 -93.999 -11c-40.667 0 -73.667 5.83301 -99 17.5s-45.666 32.5 -60.999 62.5v-270h-76v711h73z" />
    <glyph glyph-name="q" unicode="q" horiz-adv-x="574" 
d="M418 299c0 54 -12.333 92.999 -37 116.999s-64.667 36 -120 36c-28 0 -50.167 -2.5 -66.5 -7.5s-28.666 -13.167 -36.999 -24.5s-13.833 -26.833 -16.5 -46.5s-4 -43.834 -4 -72.501v-88c0 -29.333 1.33301 -53.666 4 -72.999s8.16699 -34.666 16.5 -45.999
s20.666 -19.5 36.999 -24.5s38.5 -7.5 66.5 -7.5c55.333 0 95.333 12 120 36s37 63 37 117v84zM494 -197.001l-76 0.000976562v270c-15.333 -30 -35.5 -50.833 -60.5 -62.5s-57.833 -17.5 -98.5 -17.5c-37.333 0 -68.833 3.66699 -94.5 11s-46.334 19.166 -62.001 35.499
s-27 37.333 -34 63s-10.5 56.834 -10.5 93.501v122c0 36.667 3.5 67.834 10.5 93.501s18.333 46.667 34 63s36.334 28.166 62.001 35.499s57.167 11 94.5 11c43.333 0 78 -6.83301 104 -20.5s45.333 -35.834 58 -66.501v80h73v-711z" />
    <glyph glyph-name="r" unicode="r" horiz-adv-x="468" 
d="M78 514h73.998v-70c11.333 27.333 28.333 47 51 59s52.667 18 90 18c28.667 0 52.834 -3.33301 72.501 -10s35.334 -17.5 47.001 -32.5s20 -34.167 25 -57.5s7.5 -51.333 7.5 -84v-4h-77v15c0 20 -1.33301 36.667 -4 50s-7.5 24 -14.5 32s-16.5 13.667 -28.5 17
s-27.333 5 -46 5c-44 0 -75 -12.5 -93 -37.5s-27 -63.5 -27 -115.5v-299h-77v514z" />
    <glyph glyph-name="s" unicode="s" horiz-adv-x="583" 
d="M137 153l-0.00488281 -11.9941c0 -17.333 2.66699 -31.5 8 -42.5s14 -19.5 26 -25.5s27.333 -10 46 -12s41 -3 67 -3s48.333 0.5 67 1.5s33.667 4.33301 45 10s19.666 14.5 24.999 26.5s8 28.667 8 50c0 18.667 -1.66699 33.5 -5 44.5s-9.33301 19.5 -18 25.5
s-20.167 10.167 -34.5 12.5s-32.833 4.16602 -55.5 5.49902c-52 2.66699 -94.667 4.33398 -128 5.00098s-56.666 4.66699 -69.999 12c-21.333 11.333 -35.666 26.833 -42.999 46.5s-11 45.5 -11 77.5s4.16699 57.667 12.5 77s21.666 34.166 39.999 44.499s42.5 17 72.5 20
s66.667 4.5 110 4.5c34 0 63.333 -1.66699 88 -5s45 -9.83301 61 -19.5s27.833 -23 35.5 -40s11.5 -38.833 11.5 -65.5h-76v5c0 25.333 -11.667 41.666 -35 48.999s-60.666 11 -111.999 11c-26.667 0 -48.5 -0.833008 -65.5 -2.5s-30.5 -5.33398 -40.5 -11.001
s-16.833 -13.834 -20.5 -24.501s-5.5 -25 -5.5 -43c0 -16 1 -28.833 3 -38.5s7.66699 -17.167 17 -22.5c14 -7.33301 31.833 -11.333 53.5 -12s47.834 -1.66699 78.501 -3c40 -1.33301 72.833 -3.33301 98.5 -6s44.167 -6.66699 55.5 -12c24 -11.333 40.5 -27 49.5 -47
s13.5 -47.667 13.5 -83s-4.33301 -63.166 -13 -83.499s-26 -38.5 -52 -54.5c-12 -7.33301 -31.167 -12.5 -57.5 -15.5s-60.166 -4.5 -101.499 -4.5c-39.333 0 -73.166 1.66699 -101.499 5s-51.666 10.166 -69.999 20.499s-31.833 25.166 -40.5 44.499s-13 44.666 -13 75.999
v14h77z" />
    <glyph glyph-name="t" unicode="t" horiz-adv-x="493" 
d="M28 514l63 0.000976562v116h76v-116h252v-65h-252v-283c0 -20 1.5 -36.667 4.5 -50s8.16699 -24 15.5 -32s17 -13.667 29 -17s27.333 -5 46 -5s34.167 1.66699 46.5 5s22 9 29 17s11.833 18.667 14.5 32s4 30 4 50v15h77v-4c0 -38.667 -3 -70 -9 -94
s-16.167 -42.667 -30.5 -56s-33.333 -22.333 -57 -27s-53.167 -7 -88.5 -7c-30 0 -55.167 3.33301 -75.5 10s-36.5 17.167 -48.5 31.5s-20.5 33.166 -25.5 56.499s-7.5 52 -7.5 86v272h-63v65z" />
    <glyph glyph-name="u" unicode="u" horiz-adv-x="576" 
d="M498 0l-72.998 0.000976562v70c-12.667 -26.667 -32.834 -46.167 -60.501 -58.5s-63.834 -18.5 -108.501 -18.5c-34 0 -62.667 3.33301 -86 10s-42.166 17.334 -56.499 32.001s-24.5 33.667 -30.5 57s-9 51.666 -9 84.999v337h76v-321c0 -25.333 1.5 -46.333 4.5 -63
s8.66699 -30 17 -40s20.166 -17.167 35.499 -21.5s35.333 -6.5 60 -6.5c54 0 93.167 12.167 117.5 36.5s36.5 63.166 36.5 116.499v299h77v-514z" />
    <glyph glyph-name="v" unicode="v" horiz-adv-x="472" 
d="M83 514l153 -442l153 442h74l-177 -514h-99l-180 514h76z" />
    <glyph glyph-name="w" unicode="w" horiz-adv-x="780" 
d="M100 514l118 -442l118 442h105l119 -442l118 442h73l-139 -514h-105l-118 441l-120 -441h-103l-137 514h71z" />
    <glyph glyph-name="x" unicode="x" horiz-adv-x="506" 
d="M212 275l-170 239h86l124 -180l124 180h86l-168 -239l195 -275h-86l-151 217l-148 -217h-87z" />
    <glyph glyph-name="y" unicode="y" horiz-adv-x="488" 
d="M99 514l153 -441.998l152 442h75l-194 -559c-9.33301 -26.667 -18.666 -49.834 -27.999 -69.501s-19.833 -35.834 -31.5 -48.501s-25 -22 -40 -28s-32.833 -9 -53.5 -9c-12 0 -25.333 1 -40 3v67c4 -0.666992 8 -1 12 -1h11c12.667 0 23.5 1.33301 32.5 4
s17 7.16699 24 13.5s13.167 14.5 18.5 24.5s10.666 22 15.999 36l19 53h-23l-179 514h76z" />
    <glyph glyph-name="z" unicode="z" horiz-adv-x="516" 
d="M58 83l318 361h-303v70h396v-71l-329 -374h329v-69h-411v83z" />
    <glyph glyph-name="braceleft" unicode="{" 
d="M399 669c-23.333 0 -42 -2.16504 -56 -6.49805s-25 -11.333 -33 -21s-13.333 -22.334 -16 -38.001s-4 -35.167 -4 -58.5v-118c0 -24 -1.33301 -45.333 -4 -64s-7.5 -34.667 -14.5 -48s-16.667 -24.5 -29 -33.5s-28.5 -16.5 -48.5 -22.5c20 -6 36.167 -13.5 48.5 -22.5
s22 -20.333 29 -34s11.833 -29.667 14.5 -48s4 -39.5 4 -63.5v-118c0 -23.333 1.33301 -42.833 4 -58.5s7.66699 -28.334 15 -38.001s18 -16.667 32 -21s32 -6.5 54 -6.5c3.33301 0 6.83301 0.166992 10.5 0.5s7.5 0.5 11.5 0.5v-52h-23c-34 0 -61.667 3 -83 9
s-38 16 -50 30s-20.167 32.5 -24.5 55.5s-6.5 51.5 -6.5 85.5v119c0 49.333 -9.16699 84.5 -27.5 105.5s-50.166 31.5 -95.499 31.5c-3.33301 0 -6.83301 -0.166992 -10.5 -0.5s-7.5 -0.5 -11.5 -0.5v53c4 0 7.83301 -0.166992 11.5 -0.5s7.16699 -0.5 10.5 -0.5
c45.333 0 77.166 10.5 95.499 31.5s27.5 56.167 27.5 105.5v118c0 34 2.16699 62.5 6.5 85.5s12.5 41.667 24.5 56s28.667 24.5 50 30.5s49 9 83 9h23v-52h-18z" />
    <glyph glyph-name="bar" unicode="|" 
d="M277 -236h-53v1000h53v-1000z" />
    <glyph glyph-name="braceright" unicode="}" 
d="M271 422c0 -49.333 9.16699 -84.5 27.5 -105.5s50.166 -31.5 95.499 -31.5c3.33301 0 6.83301 0.166992 10.5 0.5s7.5 0.5 11.5 0.5v-53c-4 0 -7.83301 0.166992 -11.5 0.5s-7.16699 0.5 -10.5 0.5c-45.333 0 -77.166 -10.5 -95.499 -31.5s-27.5 -56.167 -27.5 -105.5
v-119c0 -34 -2.16699 -62.5 -6.5 -85.5s-12.5 -41.5 -24.5 -55.5s-28.667 -24 -50 -30s-49 -9 -83 -9h-23v52h19c22.667 0 41 2 55 6s25 10.667 33 20s13.333 22 16 38s4 35.667 4 59v118c0 24 1.16699 45.167 3.5 63.5s7 34.333 14 48s16.833 25 29.5 34s29 16.5 49 22.5
c-20 6 -36.333 13.5 -49 22.5s-22.5 20.167 -29.5 33.5s-11.667 29.333 -14 48s-3.5 40 -3.5 64v118c0 23.333 -1.33301 43 -4 59s-7.66699 28.833 -15 38.5s-18 16.667 -32 21s-32 6.5 -54 6.5c-3.33301 0 -6.83301 -0.166992 -10.5 -0.5s-7.5 -0.5 -11.5 -0.5v52h23
c34 0 61.667 -3 83 -9s38 -16.167 50 -30.5s20.167 -33 24.5 -56s6.5 -51.5 6.5 -85.5v-118z" />
    <glyph glyph-name="asciitilde" unicode="~" horiz-adv-x="833" 
d="M747 311c-65.333 -46.667 -128.332 -70 -188.999 -70c-27.333 0 -52.333 3.66699 -75 11l-66 22c-23.333 8.66699 -46.333 16.5 -69 23.5s-46.667 10.5 -72 10.5c-30 0 -60 -6.66699 -90 -20s-63 -32.666 -99 -57.999v55c68.667 47.333 131.667 71 189 71
c27.333 0 52.166 -3.5 74.499 -10.5s44.5 -14.5 66.5 -22.5c24 -8.66699 47.333 -16.667 70 -24s46.334 -11 71.001 -11c30 0 60.167 6.66699 90.5 20s63.166 32.666 98.499 57.999v-55z" />
    <glyph glyph-name="exclamdown" unicode="&#xa1;" horiz-adv-x="252" 
d="M160 531l4 -531h-76l5 531h67zM164 727v-94h-76v94h76z" />
    <glyph glyph-name="cent" unicode="&#xa2;" horiz-adv-x="676" 
d="M342 451l-49 -0.00292969c-28 0 -50.5 -2.16699 -67.5 -6.5s-30 -12.166 -39 -23.499s-14.833 -26.666 -17.5 -45.999s-4 -44 -4 -74v-88c0 -19.333 0.5 -36.666 1.5 -51.999s3.16699 -28.833 6.5 -40.5s8.5 -21.5 15.5 -29.5s16.5 -14.333 28.5 -19zM221 -128.003
h-69.998l43 131c-41.333 13.333 -69.5 35.333 -84.5 66s-22.5 73 -22.5 127v122c0 37.333 3.5 69 10.5 95s18.5 47 34.5 63s37.167 27.5 63.5 34.5s58.833 10.5 97.5 10.5h72l32 97h70l-36 -108c69.333 -23.333 104.333 -79.333 105 -168h-79c-2 58 -18 91 -48 99l-125 -379
h45c23.333 0 43.166 1.66699 59.499 5s29.5 9.5 39.5 18.5s17.333 21.167 22 36.5s7 35 7 59v9h79v-10c0 -67.333 -16.333 -115.333 -49 -144s-85.334 -43 -158.001 -43h-68z" />
    <glyph glyph-name="sterling" unicode="&#xa3;" horiz-adv-x="676" 
d="M56 76l10 -0.000976562c31.333 0 53.166 9.66699 65.499 29s18.5 51 18.5 95v90h-94v70h94v208c0 60.667 18 103.834 54 129.501s93.333 38.5 172 38.5c82 0 142.167 -11 180.5 -33s57.5 -59.333 57.5 -112v-76h-83v45c0 19.333 -2.16699 35.5 -6.5 48.5
s-12 23.333 -23 31s-26.167 13.167 -45.5 16.5s-44 5 -74 5c-60.667 0 -102 -8 -124 -24c-13.333 -10 -21.166 -22.667 -23.499 -38s-3.5 -34.333 -3.5 -57v-182h214v-70h-214v-89c0 -71.333 -15.333 -113 -46 -125h439v-76h-568v76z" />
    <glyph glyph-name="currency" unicode="&#xa4;" horiz-adv-x="606" 
d="M461 433c0 21.333 -4 41.501 -12 60.501s-19.167 35.667 -33.5 50s-31 25.666 -50 33.999s-39.5 12.5 -61.5 12.5s-42.5 -4.16699 -61.5 -12.5s-35.833 -19.666 -50.5 -33.999s-26.167 -31 -34.5 -50s-12.5 -39.167 -12.5 -60.5c0 -22 4.16699 -42.5 12.5 -61.5
s19.833 -35.833 34.5 -50.5s31.5 -26.167 50.5 -34.5s39.5 -12.5 61.5 -12.5s42.5 4.16699 61.5 12.5s35.667 19.833 50 34.5s25.5 31.667 33.5 51s12 39.666 12 60.999zM176 591.001c38.667 29.333 81 44 127 44c48 0 90.667 -14.667 128 -44l100 100l32 -32l-100 -100
c28.667 -38.667 43 -81 43 -127c0 -45.333 -14.333 -87.333 -43 -126l100 -101l-32 -32l-100 100c-38.667 -29.333 -81.334 -44 -128.001 -44c-45.333 0 -87.666 14.667 -126.999 44l-100 -100l-32 32l100 101c-14 19.333 -24.833 39.333 -32.5 60s-11.5 42.667 -11.5 66
s3.83301 45.5 11.5 66.5s18.5 41.167 32.5 60.5l-100 100l32 32z" />
    <glyph glyph-name="yen" unicode="&#xa5;" horiz-adv-x="595" 
d="M258 0v319h-258v60h219l-64 88h-155v60h106l-149 200h95l245 -339l245 339h95l-148 -200h106v-60h-156l-64 -88h220v-60h-258v-319h-79z" />
    <glyph glyph-name="brokenbar" unicode="&#xa6;" 
d="M277 -171h-53v370h53v-370zM277 329h-53v370h53v-370z" />
    <glyph glyph-name="section" unicode="&#xa7;" horiz-adv-x="546" 
d="M214 468c-34.667 -6.66699 -60.834 -16.667 -78.501 -30s-26.5 -28.666 -26.5 -45.999c0 -32 26 -56.333 78 -73l145 -47c34.667 6.66699 60.834 16.667 78.501 30s26.5 28.666 26.5 45.999c0 31.333 -26 55.333 -78 72zM149 116
c0 -12.667 2.33398 -22.6709 7.00098 -30.0039s11.834 -13 21.501 -17s22.167 -6.5 37.5 -7.5s33.666 -1.5 54.999 -1.5c22.667 0 41.667 0.5 57 1.5s27.666 3.83301 36.999 8.5s16.166 11.334 20.499 20.001s6.5 20.667 6.5 36c0 17.333 -3.16699 31 -9.5 41
s-18.166 17.667 -35.499 23l-182 59c-45.333 14.667 -78.833 31.334 -100.5 50.001s-32.5 44.334 -32.5 77.001c0 30 9.5 55.167 28.5 75.5s46.167 33.5 81.5 39.5c-25.333 9.33301 -43.5 22.833 -54.5 40.5s-16.5 42.5 -16.5 74.5c0 26.667 3.66699 48.5 11 65.5
s18.833 30.167 34.5 39.5s35.667 15.833 60 19.5s53.833 5.5 88.5 5.5c62 0 107.667 -8.16699 137 -24.5s44 -46.166 44 -89.499v-23h-77v12c0 24 -8.66699 39.333 -26 46s-45.333 10 -84 10c-20.667 0 -38 -0.5 -52 -1.5s-25.167 -3.33301 -33.5 -7
s-14.333 -9.16699 -18 -16.5s-5.5 -17.333 -5.5 -30c0 -18 3.33301 -31.167 10 -39.5s19 -15.5 37 -21.5l218 -71c67.333 -22 101 -61.667 101 -119c0 -30 -9.83301 -55.333 -29.5 -76s-47.167 -33 -82.5 -37c26 -8 43.667 -21.333 53 -40s14 -45.667 14 -81
c0 -28 -3.5 -50.833 -10.5 -68.5s-18.333 -31.5 -34 -41.5s-36 -16.833 -61 -20.5s-55.167 -5.5 -90.5 -5.5c-34 0 -63.667 1.5 -89 4.5s-46.333 8.83301 -63 17.5s-29.167 20.5 -37.5 35.5s-12.5 34.167 -12.5 57.5v34h77v-24z" />
    <glyph glyph-name="dieresis" unicode="&#xa8;" 
d="M294 692h69v-80h-69v80zM137 692h69v-80h-69v80z" />
    <glyph glyph-name="copyright" unicode="&#xa9;" horiz-adv-x="833" 
d="M524 447c-6 26 -18.1689 46.166 -36.502 60.499s-41.5 21.5 -69.5 21.5c-39.333 0 -70.166 -15.167 -92.499 -45.5s-33.5 -74.166 -33.5 -131.499c0 -55.333 11.333 -98 34 -128s53.334 -45 92.001 -45c29.333 0 54 8.16699 74 24.5s32.667 38.833 38 67.5h56
c-2 -20 -7.5 -38.5 -16.5 -55.5s-21 -31.667 -36 -44s-32.667 -22 -53 -29s-42.166 -10.5 -65.499 -10.5c-56.667 0 -101.834 19.5 -135.501 58.5s-50.5 93.833 -50.5 164.5c0 34 4.66699 64.5 14 91.5s22.5 50 39.5 69s37.167 33.5 60.5 43.5s49 15 77 15
c44 0 80.833 -11.667 110.5 -35s46.5 -54 50.5 -92h-57zM734.998 352.999c0 43.333 -7.83301 84.167 -23.5 122.5s-38.5 72.5 -68.5 102.5c-30.667 30.667 -65.167 54 -103.5 70s-79.5 24 -123.5 24c-43.333 0 -83.833 -7.83301 -121.5 -23.5s-71.5 -38.5 -101.5 -68.5
c-31.333 -32 -55 -67.333 -71 -106s-24 -79 -24 -121s8 -82.167 24 -120.5s39.333 -72.833 70 -103.5s65.167 -54 103.5 -70s78.5 -24 120.5 -24s82.5 8 121.5 24s74.5 39.667 106.5 71c30 29.333 52.667 62.833 68 100.5s23 78.5 23 122.5zM415.998 711
c48.667 0 94.834 -9.00098 138.501 -27.001s82.5 -44 116.5 -78s59.667 -72.667 77 -116s26 -89 26 -137c0 -49.333 -8.66699 -95.166 -26 -137.499s-43 -80.166 -77 -113.499c-35.333 -34.667 -74.833 -61.167 -118.5 -79.5s-89.167 -27.5 -136.5 -27.5s-92.5 9 -135.5 27
s-81.833 44.333 -116.5 79c-34 34 -60 72.5 -78 115.5s-27 88.5 -27 136.5s9.16699 93.667 27.5 137s44.833 82.666 79.5 117.999c33.333 34 71.166 59.667 113.499 77s87.833 26 136.5 26z" />
    <glyph glyph-name="ordfeminine" unicode="&#xaa;" horiz-adv-x="424" 
d="M311 496c0 18 -9.66797 30.833 -29.001 38.5s-48.666 11.5 -87.999 11.5c-36 0 -60.5 -4.16699 -73.5 -12.5s-19.5 -25.5 -19.5 -51.5c0 -14 1.5 -25.667 4.5 -35s8.16699 -16.5 15.5 -21.5s17.5 -8.5 30.5 -10.5s29.167 -3 48.5 -3c74 0 111 15.667 111 47v37z
M313.999 405c-9.33301 -16 -23.833 -27.166 -43.5 -33.499s-45.5 -9.5 -77.5 -9.5c-28 0 -51.667 1.5 -71 4.5s-35 8.66699 -47 17s-20.667 20 -26 35s-8 34.167 -8 57.5s2 42.5 6 57.5s12 27.167 24 36.5c10.667 8 25.667 13.333 45 16s44 4 74 4
c32 0 57.667 -2.33301 77 -7s34 -14 44 -28v63c0 16 -1.5 28.5 -4.5 37.5s-8.5 16 -16.5 21s-19.167 8.16699 -33.5 9.5s-32.833 2 -55.5 2c-32 0 -54.667 -3 -68 -9s-20.333 -19.667 -21 -41h-57v8c0 32.667 11.333 55.167 34 67.5s58.667 18.5 108 18.5
c36 0 65.667 -1.5 89 -4.5s40.666 -8.5 51.999 -16.5c14.667 -10.667 23.334 -23.334 26.001 -38.001s4 -32.667 4 -54v-252h-51z" />
    <glyph glyph-name="guillemotleft" unicode="&#xab;" horiz-adv-x="479" 
d="M168 104l-120 153l120 153h84l-121 -153l121 -153h-84zM339 104l-120 153l120 153h84l-121 -153l121 -153h-84z" />
    <glyph glyph-name="logicalnot" unicode="&#xac;" horiz-adv-x="833" 
d="M709 174h-47v196h-538v49h585v-245z" />
    <glyph glyph-name="registered" unicode="&#xae;" horiz-adv-x="833" 
d="M338 523v-148h77c40.667 0 70.5 5 89.5 15s28.5 29 28.5 57s-9.5 47.667 -28.5 59s-48.833 17 -89.5 17h-77zM427 565c57.333 0 100 -8.99902 128 -26.999s42 -47 42 -87c0 -28.667 -8.66699 -52.834 -26 -72.501s-41 -31.5 -71 -35.5l92 -190h-71l-87 181h-96v-181h-62
v412h151zM735 352.001c0 44 -7.66797 85.168 -23.001 123.501s-38 72.5 -68 102.5c-30.667 30.667 -65.334 54 -104.001 70s-80 24 -124 24c-43.333 0 -83.666 -7.83301 -120.999 -23.5s-71 -38.5 -101 -68.5c-31.333 -32 -55.166 -67.333 -71.499 -106
s-24.5 -79 -24.5 -121s8 -82.167 24 -120.5s39.333 -72.833 70 -103.5s65.167 -54 103.5 -70s78.5 -24 120.5 -24s82.5 8 121.5 24s74.5 39.667 106.5 71c30 29.333 52.667 62.666 68 99.999s23 78 23 122zM415.999 711.002c49.333 0 95.668 -8.83398 139.001 -26.501
s82 -43.834 116 -78.501c34 -34 59.667 -72.667 77 -116s26 -89 26 -137c0 -49.333 -8.66699 -95.166 -26 -137.499s-43 -80.166 -77 -113.499c-35.333 -34.667 -74.833 -61.167 -118.5 -79.5s-89.167 -27.5 -136.5 -27.5c-48 0 -93.5 9 -136.5 27s-81.5 44.333 -115.5 79
c-34 34 -60 72.5 -78 115.5s-27 88.5 -27 136.5c0 47.333 9.16699 92.833 27.5 136.5s44.833 83.167 79.5 118.5c33.333 34 71.166 59.667 113.499 77s87.833 26 136.5 26z" />
    <glyph glyph-name="macron" unicode="&#xaf;" 
d="M125 681h250v-57h-250v57z" />
    <glyph glyph-name="macron" unicode="&#x2c9;" 
d="M125 681h250v-57h-250v57z" />
    <glyph glyph-name="degree" unicode="&#xb0;" horiz-adv-x="329" 
d="M266 573c0 14 -2.66699 27.167 -8 39.5s-12.5 23.166 -21.5 32.499s-19.667 16.666 -32 21.999s-25.5 8 -39.5 8s-27.167 -2.66699 -39.5 -8s-23.166 -12.666 -32.499 -21.999s-16.666 -20.166 -21.999 -32.499s-8 -25.5 -8 -39.5s2.66699 -27.167 8 -39.5
s12.666 -23 21.999 -32s20.166 -16.167 32.499 -21.5s25.5 -8 39.5 -8s27.167 2.66699 39.5 8s23 12.5 32 21.5s16.167 19.667 21.5 32s8 25.5 8 39.5zM165 709c18.667 0 36.167 -3.5 52.5 -10.5s30.666 -16.667 42.999 -29s22 -26.833 29 -43.5s10.5 -34.334 10.5 -53.001
s-3.5 -36.167 -10.5 -52.5s-16.667 -30.666 -29 -42.999s-26.833 -22.166 -43.5 -29.499s-34.334 -11 -53.001 -11c-19.333 0 -37.166 3.5 -53.499 10.5s-30.5 16.667 -42.5 29s-21.5 26.666 -28.5 42.999s-10.5 34.166 -10.5 53.499c0 18.667 3.5 36.334 10.5 53.001
s16.667 31.167 29 43.5s26.833 22 43.5 29s34.334 10.5 53.001 10.5z" />
    <glyph glyph-name="plusminus" unicode="&#xb1;" horiz-adv-x="833" 
d="M709 25h-585v48h585v-48zM441 401h268v-48h-268v-170h-48v170h-269v48h269v170h48v-170z" />
    <glyph glyph-name="twosuperior" unicode="&#xb2;" horiz-adv-x="446" 
d="M48 365c0 18.667 1.50195 35.1709 4.50195 49.5039s9.83301 27.166 20.5 38.499c11.333 12 24.833 20.833 40.5 26.5s33.834 11.167 54.501 16.5l109 27c34 9.33301 55 19.333 63 30c4 5.33301 6.33301 12.666 7 21.999s1 21 1 35c0 16 -1 29.167 -3 39.5
s-7.66699 18.833 -17 25.5c-12.667 8.66699 -52 13 -118 13c-21.333 0 -39 -0.833008 -53 -2.5s-25 -5 -33 -10s-13.5 -12.333 -16.5 -22s-4.5 -22.5 -4.5 -38.5v-26h-55v29c0 23.333 3.16699 42.5 9.5 57.5s16.166 26.667 29.499 35s30.333 14.166 51 17.499s45.667 5 75 5
c32 0 58.167 -0.666992 78.5 -2s36.166 -4.33301 47.499 -9c14 -5.33301 25 -11.5 33 -18.5s14.167 -15 18.5 -24s7.16602 -19.5 8.49902 -31.5s2 -26 2 -42c0 -18.667 -1.16699 -34.667 -3.5 -48s-7 -24.833 -14 -34.5s-16.667 -17.834 -29 -24.501
s-28.833 -12.667 -49.5 -18l-134 -34c-23.333 -6 -40.5 -12.667 -51.5 -20s-16.5 -21.333 -16.5 -42v-48h298v-46h-353v74z" />
    <glyph glyph-name="threesuperior" unicode="&#xb3;" horiz-adv-x="446" 
d="M100 436l0.00195312 -39c0 -15.333 2.33301 -27.333 7 -36s12.167 -15.334 22.5 -20.001s23.5 -7.5 39.5 -8.5s35.333 -1.5 58 -1.5c30 0 54.167 1.16699 72.5 3.5s31.5 8.83301 39.5 19.5c4 5.33301 6.5 13.833 7.5 25.5s1.5 26.5 1.5 44.5
c0 11.333 -1 21.166 -3 29.499s-6 15.333 -12 21s-14.5 9.83398 -25.5 12.501s-25.5 4 -43.5 4h-73v44h66c18 0 32.333 1.33301 43 4s18.834 7.16699 24.501 13.5s9.5 14.5 11.5 24.5s3 22 3 36c0 15.333 -0.666992 28 -2 38s-6 18 -14 24c-10.667 8 -46 12 -106 12
c-20 0 -36.833 -0.5 -50.5 -1.5s-24.834 -3.5 -33.501 -7.5s-14.834 -9.83301 -18.501 -17.5s-5.5 -17.834 -5.5 -30.501v-40h-54v39c0 39.333 13 66.5 39 81.5s66.667 22.5 122 22.5c30.667 0 56.5 -0.833008 77.5 -2.5s37.833 -5.16699 50.5 -10.5
c20.667 -9.33301 34.167 -22 40.5 -38s9.5 -38 9.5 -66c0 -30.667 -4.16699 -53.834 -12.5 -69.501s-26.5 -26.167 -54.5 -31.5c29.333 -5.33301 49.166 -15.333 59.499 -30s15.5 -36.667 15.5 -66c0 -17.333 -0.833008 -32.666 -2.5 -45.999
s-5.16699 -25.666 -10.5 -36.999c-10 -22 -28 -35.833 -54 -41.5s-61.667 -8.5 -107 -8.5c-34 0 -63 1 -87 3s-43.667 9.33301 -59 22c-12.667 10.667 -21.667 23.334 -27 38.001s-8 32 -8 52v35h53z" />
    <glyph glyph-name="acute" unicode="&#xb4;" 
d="M189 575l102 170h74l-131 -170h-45z" />
    <glyph glyph-name="mu" unicode="&#xb5;" horiz-adv-x="542" 
d="M107 231c-2.66699 -11.333 -4.66992 -22.667 -6.00293 -34s-2 -22.666 -2 -33.999c0 -38 9.33301 -67.333 28 -88s46 -31 82 -31c40 0 74.667 17 104 51s51.333 85 66 153l59 272h68l-80 -376c-3.33301 -15.333 -6 -28.333 -8 -39s-3 -19.334 -3 -26.001
c0 -21.333 11 -32 33 -32h6c2.66699 0 6.66699 0.333008 12 1l-10 -54c-7.33301 -2 -14.666 -3.33301 -21.999 -4s-14 -1 -20 -1c-44.667 0 -67 23.667 -67 71v7c-13.333 -25.333 -32.666 -44.833 -57.999 -58.5s-54.666 -20.5 -87.999 -20.5c-30 0 -56.167 6.5 -78.5 19.5
s-39.833 31.833 -52.5 56.5l-56 -272h-68l154 728h68z" />
    <glyph glyph-name="mu" unicode="&#x3bc;" horiz-adv-x="542" 
d="M107 231c-2.66699 -11.333 -4.66992 -22.667 -6.00293 -34s-2 -22.666 -2 -33.999c0 -38 9.33301 -67.333 28 -88s46 -31 82 -31c40 0 74.667 17 104 51s51.333 85 66 153l59 272h68l-80 -376c-3.33301 -15.333 -6 -28.333 -8 -39s-3 -19.334 -3 -26.001
c0 -21.333 11 -32 33 -32h6c2.66699 0 6.66699 0.333008 12 1l-10 -54c-7.33301 -2 -14.666 -3.33301 -21.999 -4s-14 -1 -20 -1c-44.667 0 -67 23.667 -67 71v7c-13.333 -25.333 -32.666 -44.833 -57.999 -58.5s-54.666 -20.5 -87.999 -20.5c-30 0 -56.167 6.5 -78.5 19.5
s-39.833 31.833 -52.5 56.5l-56 -272h-68l154 728h68z" />
    <glyph glyph-name="paragraph" unicode="&#xb6;" 
d="M397 688l-0.000976562 -688h-40v688h-92v-688h-40v382c-58 2.66699 -103.167 19.5 -135.5 50.5s-48.5 70.833 -48.5 119.5c0 24.667 4.5 47.5 13.5 68.5s21.833 39 38.5 54s36.834 26.667 60.501 35s50.167 12.5 79.5 12.5h226v-34h-62z" />
    <glyph glyph-name="periodcentered" unicode="&#xb7;" horiz-adv-x="338" 
d="M111 388c0 16 5.66699 29.667 17 41s25 17 41 17s29.667 -5.66699 41 -17s17 -25 17 -41s-5.66699 -29.5 -17 -40.5s-25 -16.5 -41 -16.5s-29.667 5.5 -41 16.5s-17 24.5 -17 40.5z" />
    <glyph glyph-name="periodcentered" unicode="&#x2219;" horiz-adv-x="338" 
d="M111 388c0 16 5.66699 29.667 17 41s25 17 41 17s29.667 -5.66699 41 -17s17 -25 17 -41s-5.66699 -29.5 -17 -40.5s-25 -16.5 -41 -16.5s-29.667 5.5 -41 16.5s-17 24.5 -17 40.5z" />
    <glyph glyph-name="cedilla" unicode="&#xb8;" 
d="M255 -56l31.0029 -0.00292969c16.667 0 30 -1 40 -3s17.5 -6 22.5 -12s8.16699 -14.167 9.5 -24.5s2 -23.833 2 -40.5c0 -18.667 -0.666992 -33.667 -2 -45s-4.5 -20.166 -9.5 -26.499s-12.333 -10.666 -22 -12.999s-22.834 -3.5 -39.501 -3.5h-129v43h104
c8.66699 0 15.667 0.5 21 1.5s9.16602 3 11.499 6s3.83301 7.66699 4.5 14s1 14.833 1 25.5s-0.333008 19 -1 25s-2.33398 10.333 -5.00098 13s-6.66699 4.33398 -12 5.00098s-12.333 1 -21 1h-38v90h32v-56z" />
    <glyph glyph-name="onesuperior" unicode="&#xb9;" horiz-adv-x="446" 
d="M236 684l-113 -103l-33 29l129 117h69v-436h-52v393z" />
    <glyph glyph-name="ordmasculine" unicode="&#xba;" horiz-adv-x="424" 
d="M321 578c0 20.667 -1 37.834 -3 51.501s-6.33301 24.5 -13 32.5s-16.334 13.5 -29.001 16.5s-29.667 4.5 -51 4.5h-27c-21.333 0 -38.333 -1.5 -51 -4.5s-22.167 -8.5 -28.5 -16.5s-10.5 -18.833 -12.5 -32.5s-3 -30.834 -3 -51.501v-62c0 -21.333 1 -38.833 3 -52.5
s6.16699 -24.5 12.5 -32.5s15.833 -13.5 28.5 -16.5s29.667 -4.5 51 -4.5h27c21.333 0 38.333 1.5 51 4.5s22.334 8.5 29.001 16.5s11 18.833 13 32.5s3 31.167 3 52.5v62zM199 362c-29.333 0 -53.833 2.5 -73.5 7.5s-35.5 13 -47.5 24s-20.667 25.667 -26 44
s-8 40.5 -8 66.5v86c0 26 2.66699 48.167 8 66.5s14 33 26 44s27.833 19 47.5 24s43.834 7.5 72.501 7.5h27c28.667 0 53 -2.5 73 -7.5s36 -13 48 -24s20.667 -25.667 26 -44s8 -40.5 8 -66.5v-86c0 -26 -2.66699 -48.167 -8 -66.5s-14 -33 -26 -44s-27.833 -19 -47.5 -24
s-43.834 -7.5 -72.501 -7.5h-27z" />
    <glyph glyph-name="guillemotright" unicode="&#xbb;" horiz-adv-x="479" 
d="M348 257l-120 153h83l120 -153l-120 -153h-83zM177 257l-121 153h84l120 -153l-120 -153h-84z" />
    <glyph glyph-name="onequarter" unicode="&#xbc;" horiz-adv-x="1019" 
d="M871 138v224l-194 -224h194zM628 147l224 260h70v-269h70v-43h-70v-95h-51v95h-243v52zM683 736h76l-423 -745h-77zM225 687l-108 -97l-31 28l123 109h66v-407h-50v367z" />
    <glyph glyph-name="onehalf" unicode="&#xbd;" horiz-adv-x="1019" 
d="M639 69c0 17.333 1.5 32.668 4.5 46.001s9.5 25.333 19.5 36c10.667 11.333 23.667 19.666 39 24.999s32.666 10.666 51.999 15.999l103 25c33.333 8 53.333 17 60 27c4.66699 5.33301 7.33398 12.333 8.00098 21s1 19.667 1 33c0 15.333 -1 27.666 -3 36.999
s-7.66699 17 -17 23c-10.667 8 -48.334 12 -113.001 12c-20.667 0 -37.5 -0.666992 -50.5 -2s-23.333 -4.5 -31 -9.5s-13 -12 -16 -21s-4.5 -20.833 -4.5 -35.5v-24h-52v27c0 22 3 40 9 54s15.167 24.833 27.5 32.5s28.5 13 48.5 16s44 4.5 72 4.5c30 0 55 -0.666992 75 -2
s35.333 -4 46 -8c12.667 -5.33301 23 -11.166 31 -17.499s14 -13.833 18 -22.5s6.66699 -18.5 8 -29.5s2 -23.833 2 -38.5c0 -17.333 -1.16699 -32.166 -3.5 -44.499s-6.66602 -23 -12.999 -32s-15.5 -16.667 -27.5 -23s-28 -11.833 -48 -16.5l-128 -32
c-22 -6 -38.333 -12.5 -49 -19.5s-16 -20.167 -16 -39.5v-44h285v-43h-337v69zM683 736.002h76l-423 -745h-77zM225 687.002l-108 -97l-31 28l123 109h66v-407h-50v367z" />
    <glyph glyph-name="threequarters" unicode="&#xbe;" horiz-adv-x="1019" 
d="M871 138v224l-194 -224h194zM628 147l224 260h70v-269h70v-43h-70v-95h-51v95h-243v52zM683 736h76l-423 -745h-77zM96 455l-0.000976562 -36.001c0 -14 2.16699 -25.167 6.5 -33.5s11.333 -14.666 21 -18.999s22.167 -7 37.5 -8s34 -1.5 56 -1.5
c28.667 0 51.834 1.16699 69.501 3.5s30.167 8.5 37.5 18.5c3.33301 5.33301 5.5 13.166 6.5 23.499s1.5 24.166 1.5 41.499c0 10.667 -0.833008 20 -2.5 28s-5.33398 14.5 -11.001 19.5s-13.834 8.66699 -24.501 11s-24.667 3.5 -42 3.5h-70v42h64
c16.667 0 30.167 1.33301 40.5 4s18.166 6.83398 23.499 12.501s9 13.167 11 22.5s3 20.666 3 33.999c0 14 -0.666992 25.667 -2 35s-6 16.666 -14 21.999c-10 8 -43.667 12 -101 12c-38 0 -64.667 -3 -80 -9s-23 -21 -23 -45v-37h-51v36c0 37.333 12.333 62.833 37 76.5
s63.334 20.5 116.001 20.5c30 0 55 -0.666992 75 -2s35.667 -4.66602 47 -9.99902c20 -8 33 -19.667 39 -35s9 -35.666 9 -60.999c0 -14.667 -0.833008 -27.334 -2.5 -38.001s-4.83398 -19.667 -9.50098 -27s-11.167 -13.5 -19.5 -18.5s-19.166 -8.83301 -32.499 -11.5
c28.667 -5.33301 47.834 -14.666 57.501 -27.999s14.5 -34 14.5 -62c0 -16 -0.833008 -30.333 -2.5 -43s-4.83398 -24 -9.50098 -34c-10 -20.667 -27.333 -33.667 -52 -39s-58.667 -8 -102 -8c-33.333 0 -61.166 1 -83.499 3s-41.166 9 -56.499 21
c-12 10 -20.5 21.833 -25.5 35.5s-7.5 29.834 -7.5 48.501v32h51z" />
    <glyph glyph-name="questiondown" unicode="&#xbf;" horiz-adv-x="519" 
d="M332 634h-81v93h81v-93zM332 470c0 -19.333 -2.66699 -35.3301 -8 -47.9971s-13 -23.667 -23 -33s-22.167 -17.666 -36.5 -24.999s-30.5 -15 -48.5 -23c-22 -9.33301 -40.667 -18 -56 -26s-27 -17.667 -35 -29c-6 -9.33301 -10.667 -22.5 -14 -39.5s-5 -38.833 -5 -65.5
c0 -24 2 -43.333 6 -58s10.667 -26.334 20 -35.001s21.5 -14.5 36.5 -17.5s33.167 -4.5 54.5 -4.5c40.667 0 73.5 1 98.5 3s42.5 6.66699 52.5 14c10.667 8 17.834 20.167 21.501 36.5s5.5 37.5 5.5 63.5v20.5c0 7 -0.333008 14.167 -1 21.5h80v-72
c0 -32 -4.66699 -58.333 -14 -79s-23.5 -37.167 -42.5 -49.5s-43 -21 -72 -26s-63.5 -7.5 -103.5 -7.5s-74 2.66699 -102 8s-50.667 15.166 -68 29.499s-30 33.833 -38 58.5s-12 56.667 -12 96c0 28 1.33301 52.667 4 74s7.16699 39.833 13.5 55.5
s15.166 29.167 26.499 40.5s25.666 21 42.999 29l58.5 26c17 7.33301 31.333 14.666 43 21.999s20.334 15.666 26.001 24.999s8.5 21.333 8.5 36v37h81v-58z" />
    <glyph glyph-name="Agrave" unicode="&#xc0;" horiz-adv-x="692" 
d="M504 258l-145 392h-26l-144 -392h315zM280 727h132l270 -727h-83l-69 186h-368l-68 -186h-83zM231 960h74l102 -170h-45z" />
    <glyph glyph-name="Aacute" unicode="&#xc1;" horiz-adv-x="692" 
d="M504 258l-145 392h-26l-144 -392h315zM280 727h132l270 -727h-83l-69 186h-368l-68 -186h-83zM285 790l102 170h74l-131 -170h-45z" />
    <glyph glyph-name="Acircumflex" unicode="&#xc2;" horiz-adv-x="692" 
d="M504 258l-145 392h-26l-144 -392h315zM280 727h132l270 -727h-83l-69 186h-368l-68 -186h-83zM309 960h74l98 -170h-45l-90 128l-90 -128h-45z" />
    <glyph glyph-name="Atilde" unicode="&#xc3;" horiz-adv-x="692" 
d="M504 258l-145 392h-26l-144 -392h315zM280 727h132l270 -727h-83l-69 186h-368l-68 -186h-83zM487 918c-16.667 -58.667 -47.665 -88 -92.998 -88c-9.33301 0 -20 1.66699 -32 5l-47 14c-10 3.33301 -18.667 5 -26 5c-19.333 0 -34.333 -12 -45 -36h-39
c7.33301 29.333 19.166 51.5 35.499 66.5s36.166 22.5 59.499 22.5c10 0 18.667 -1.33301 26 -4l47 -15c5.33301 -2 10.333 -3.33301 15 -4s8.66699 -1 12 -1c21.333 0 37 11.667 47 35h40z" />
    <glyph glyph-name="Adieresis" unicode="&#xc4;" horiz-adv-x="692" 
d="M504 258l-145 392h-26l-144 -392h315zM280 727h132l270 -727h-83l-69 186h-368l-68 -186h-83zM390 907h69v-80h-69v80zM233 907h69v-80h-69v80z" />
    <glyph glyph-name="Aring" unicode="&#xc5;" horiz-adv-x="692" 
d="M275 872c0 -20.667 7.16699 -38 21.5 -52s31.833 -21 52.5 -21c20 0 37.167 7 51.5 21s21.5 31.333 21.5 52s-7 38 -21 52s-31.333 21 -52 21s-38.167 -7 -52.5 -21s-21.5 -31.333 -21.5 -52zM231 872c0 16.667 3 32.167 9 46.5s14.167 26.833 24.5 37.5
s22.666 19 36.999 25s29.833 9 46.5 9s32.167 -3 46.5 -9s26.833 -14.333 37.5 -25s19 -23.167 25 -37.5s9 -29.833 9 -46.5s-3 -32.167 -9 -46.5s-14.333 -26.666 -25 -36.999s-23.167 -18.5 -37.5 -24.5s-29.833 -9 -46.5 -9s-32.167 3 -46.5 9
s-26.666 14.167 -36.999 24.5s-18.5 22.666 -24.5 36.999s-9 29.833 -9 46.5zM504 258l-145 392h-26l-144 -392h315zM280 727h132l270 -727h-83l-69 186h-368l-68 -186h-83z" />
    <glyph glyph-name="AE" unicode="&#xc6;" horiz-adv-x="1015" 
d="M466 258v392h-102l-217 -392h319zM466 181h-362l-99 -181h-86l402 727h653v-77h-433v-238h421v-74h-421v-262h433v-76h-508v181z" />
    <glyph glyph-name="Ccedilla" unicode="&#xc7;" horiz-adv-x="683" 
d="M65 487c0 46 4.16406 84.999 12.4971 116.999s22 57.667 41 77s43.833 33.333 74.5 42s68.667 13 114 13h85c42.667 0 79.334 -3.5 110.001 -10.5s55.834 -18.5 75.501 -34.5s34.167 -37.167 43.5 -63.5s14 -59.166 14 -98.499v-32h-83v20
c0 29.333 -2.83301 53.333 -8.5 72s-15 33.167 -28 43.5s-30.167 17.5 -51.5 21.5s-47.333 6 -78 6h-56c-33.333 0 -61.666 -1.83301 -84.999 -5.5s-43.666 -13.5 -60.999 -29.5c-17.333 -16.667 -27.666 -37.667 -30.999 -63s-5 -57 -5 -95v-207
c0 -38 1.66699 -69.667 5 -95s13.666 -46.333 30.999 -63c18 -17.333 38.833 -27.5 62.5 -30.5s51.5 -4.5 83.5 -4.5h56c32 0 58.667 2 80 6s38.5 11.667 51.5 23s22.167 27 27.5 47s8 45.667 8 77v17c0 6 -0.333008 12 -1 18h83v-48c0 -42 -4.33301 -76.833 -13 -104.5
s-22.667 -49.667 -42 -66s-44.333 -28 -75 -35s-68.334 -10.5 -113.001 -10.5h-85c-45.333 0 -83.333 4.33301 -114 13s-55.5 22.667 -74.5 42s-32.667 45 -41 77s-12.5 71 -12.5 117v247zM358.997 -56.001l31.0029 -0.00292969c16.667 0 30 -1 40 -3s17.5 -6 22.5 -12
s8.16699 -14.167 9.5 -24.5s2 -23.833 2 -40.5c0 -18.667 -0.666992 -33.667 -2 -45s-4.5 -20.166 -9.5 -26.499s-12.333 -10.666 -22 -12.999s-22.834 -3.5 -39.501 -3.5h-129v43h104c8.66699 0 15.667 0.5 21 1.5s9.16602 3 11.499 6s3.83301 7.66699 4.5 14
s1 14.833 1 25.5s-0.333008 19 -1 25s-2.33398 10.333 -5.00098 13s-6.66699 4.33398 -12 5.00098s-12.333 1 -21 1h-38v90h32v-56z" />
    <glyph glyph-name="Egrave" unicode="&#xc8;" horiz-adv-x="639" 
d="M88 727h510v-77h-430v-238h418v-74h-418v-262h430v-76h-510v727zM243 960h74l102 -170h-45z" />
    <glyph glyph-name="Eacute" unicode="&#xc9;" horiz-adv-x="639" 
d="M88 727h510v-77h-430v-238h418v-74h-418v-262h430v-76h-510v727zM297 790l102 170h74l-131 -170h-45z" />
    <glyph glyph-name="Ecircumflex" unicode="&#xca;" horiz-adv-x="639" 
d="M88 727h510v-77h-430v-238h418v-74h-418v-262h430v-76h-510v727zM321 960h74l98 -170h-45l-90 128l-90 -128h-45z" />
    <glyph glyph-name="Edieresis" unicode="&#xcb;" horiz-adv-x="639" 
d="M88 727h510v-77h-430v-238h418v-74h-418v-262h430v-76h-510v727zM402 907h69v-80h-69v80zM245 907h69v-80h-69v80z" />
    <glyph glyph-name="Igrave" unicode="&#xcc;" horiz-adv-x="257" 
d="M88 727h81v-727h-81v727zM15 960h74l102 -170h-45z" />
    <glyph glyph-name="Iacute" unicode="&#xcd;" horiz-adv-x="257" 
d="M88 727h81v-727h-81v727zM69 790l102 170h74l-131 -170h-45z" />
    <glyph glyph-name="Icircumflex" unicode="&#xce;" horiz-adv-x="257" 
d="M88 727h81v-727h-81v727zM93 960h74l98 -170h-45l-90 128l-90 -128h-45z" />
    <glyph glyph-name="Idieresis" unicode="&#xcf;" horiz-adv-x="257" 
d="M88 727h81v-727h-81v727zM174 907h69v-80h-69v80zM17 907h69v-80h-69v80z" />
    <glyph glyph-name="Eth" unicode="&#xd0;" horiz-adv-x="773" 
d="M450 72c34 0 62.1689 2.5 84.502 7.5s40.166 13.833 53.499 26.5s22.833 30 28.5 52s8.5 50.333 8.5 85v235c0 35.333 -2.66699 64.5 -8 87.5s-14.5 41.167 -27.5 54.5s-30.833 22.5 -53.5 27.5s-51.334 7.5 -86.001 7.5h-259v-239h218v-70h-218v-274h259zM111.002 346
h-111v70h111v311h351c46 0 84.667 -4.33301 116 -13s56.666 -22.5 75.999 -41.5s33.333 -44 42 -75s13 -68.833 13 -113.5v-240c0 -44.667 -4.33301 -82.5 -13 -113.5s-22.667 -56.167 -42 -75.5s-44.666 -33.333 -75.999 -42s-70 -13 -116 -13h-351v346z" />
    <glyph glyph-name="Ntilde" unicode="&#xd1;" horiz-adv-x="775" 
d="M88 727h124l394 -649v649h80v-727h-124l-394 650v-650h-80v727zM539 918c-16.667 -58.667 -47.665 -88 -92.998 -88c-9.33301 0 -20 1.66699 -32 5l-47 14c-10 3.33301 -18.667 5 -26 5c-19.333 0 -34.333 -12 -45 -36h-39c7.33301 29.333 19.166 51.5 35.499 66.5
s36.166 22.5 59.499 22.5c10 0 18.667 -1.33301 26 -4l47 -15c5.33301 -2 10.333 -3.33301 15 -4s8.66699 -1 12 -1c21.333 0 37 11.667 47 35h40z" />
    <glyph glyph-name="Ograve" unicode="&#xd2;" horiz-adv-x="745" 
d="M350 660c-36 0 -67 -1.66992 -93 -5.00293s-49.333 -13.666 -70 -30.999c-18 -15.333 -29 -35.666 -33 -60.999s-6 -57.666 -6 -96.999v-206c0 -39.333 2 -71.5 6 -96.5s15 -45.167 33 -60.5c20.667 -17.333 44 -27.666 70 -30.999s57 -5 93 -5h45
c36 0 67.167 1.66699 93.5 5s49.833 13.666 70.5 30.999c18 15.333 28.833 35.666 32.5 60.999s5.5 57.333 5.5 96v207c0 38.667 -2 70.834 -6 96.501s-15 46.167 -33 61.5c-20 17.333 -43.167 27.5 -69.5 30.5s-57.5 4.5 -93.5 4.5h-45zM65 486.997
c0 46.667 4.49902 85.8311 13.499 117.498s23.833 57.334 44.5 77.001s47.667 33.667 81 42s74.333 12.5 123 12.5h92c48.667 0 89.834 -4.16699 123.501 -12.5s60.667 -22.166 81 -41.499s35 -44.833 44 -76.5s13.5 -71.167 13.5 -118.5v-247
c0 -46.667 -4.5 -85.834 -13.5 -117.501s-23.833 -57.334 -44.5 -77.001s-47.667 -33.667 -81 -42s-74.333 -12.5 -123 -12.5h-92c-48.667 0 -89.667 4.16699 -123 12.5s-60.333 22.333 -81 42s-35.5 45.334 -44.5 77.001s-13.5 70.834 -13.5 117.501v247zM257.999 959.994
h74l102 -170h-45z" />
    <glyph glyph-name="Oacute" unicode="&#xd3;" horiz-adv-x="745" 
d="M350 660c-36 0 -67 -1.66992 -93 -5.00293s-49.333 -13.666 -70 -30.999c-18 -15.333 -29 -35.666 -33 -60.999s-6 -57.666 -6 -96.999v-206c0 -39.333 2 -71.5 6 -96.5s15 -45.167 33 -60.5c20.667 -17.333 44 -27.666 70 -30.999s57 -5 93 -5h45
c36 0 67.167 1.66699 93.5 5s49.833 13.666 70.5 30.999c18 15.333 28.833 35.666 32.5 60.999s5.5 57.333 5.5 96v207c0 38.667 -2 70.834 -6 96.501s-15 46.167 -33 61.5c-20 17.333 -43.167 27.5 -69.5 30.5s-57.5 4.5 -93.5 4.5h-45zM65 486.997
c0 46.667 4.49902 85.8311 13.499 117.498s23.833 57.334 44.5 77.001s47.667 33.667 81 42s74.333 12.5 123 12.5h92c48.667 0 89.834 -4.16699 123.501 -12.5s60.667 -22.166 81 -41.499s35 -44.833 44 -76.5s13.5 -71.167 13.5 -118.5v-247
c0 -46.667 -4.5 -85.834 -13.5 -117.501s-23.833 -57.334 -44.5 -77.001s-47.667 -33.667 -81 -42s-74.333 -12.5 -123 -12.5h-92c-48.667 0 -89.667 4.16699 -123 12.5s-60.333 22.333 -81 42s-35.5 45.334 -44.5 77.001s-13.5 70.834 -13.5 117.501v247zM311.999 789.994
l102 170h74l-131 -170h-45z" />
    <glyph glyph-name="Ocircumflex" unicode="&#xd4;" horiz-adv-x="745" 
d="M350 660c-36 0 -67 -1.66992 -93 -5.00293s-49.333 -13.666 -70 -30.999c-18 -15.333 -29 -35.666 -33 -60.999s-6 -57.666 -6 -96.999v-206c0 -39.333 2 -71.5 6 -96.5s15 -45.167 33 -60.5c20.667 -17.333 44 -27.666 70 -30.999s57 -5 93 -5h45
c36 0 67.167 1.66699 93.5 5s49.833 13.666 70.5 30.999c18 15.333 28.833 35.666 32.5 60.999s5.5 57.333 5.5 96v207c0 38.667 -2 70.834 -6 96.501s-15 46.167 -33 61.5c-20 17.333 -43.167 27.5 -69.5 30.5s-57.5 4.5 -93.5 4.5h-45zM65 486.997
c0 46.667 4.49902 85.8311 13.499 117.498s23.833 57.334 44.5 77.001s47.667 33.667 81 42s74.333 12.5 123 12.5h92c48.667 0 89.834 -4.16699 123.501 -12.5s60.667 -22.166 81 -41.499s35 -44.833 44 -76.5s13.5 -71.167 13.5 -118.5v-247
c0 -46.667 -4.5 -85.834 -13.5 -117.501s-23.833 -57.334 -44.5 -77.001s-47.667 -33.667 -81 -42s-74.333 -12.5 -123 -12.5h-92c-48.667 0 -89.667 4.16699 -123 12.5s-60.333 22.333 -81 42s-35.5 45.334 -44.5 77.001s-13.5 70.834 -13.5 117.501v247zM335.999 959.994
h74l98 -170h-45l-90 128l-90 -128h-45z" />
    <glyph glyph-name="Otilde" unicode="&#xd5;" horiz-adv-x="745" 
d="M350 660c-36 0 -67 -1.66992 -93 -5.00293s-49.333 -13.666 -70 -30.999c-18 -15.333 -29 -35.666 -33 -60.999s-6 -57.666 -6 -96.999v-206c0 -39.333 2 -71.5 6 -96.5s15 -45.167 33 -60.5c20.667 -17.333 44 -27.666 70 -30.999s57 -5 93 -5h45
c36 0 67.167 1.66699 93.5 5s49.833 13.666 70.5 30.999c18 15.333 28.833 35.666 32.5 60.999s5.5 57.333 5.5 96v207c0 38.667 -2 70.834 -6 96.501s-15 46.167 -33 61.5c-20 17.333 -43.167 27.5 -69.5 30.5s-57.5 4.5 -93.5 4.5h-45zM65 486.997
c0 46.667 4.49902 85.8311 13.499 117.498s23.833 57.334 44.5 77.001s47.667 33.667 81 42s74.333 12.5 123 12.5h92c48.667 0 89.834 -4.16699 123.501 -12.5s60.667 -22.166 81 -41.499s35 -44.833 44 -76.5s13.5 -71.167 13.5 -118.5v-247
c0 -46.667 -4.5 -85.834 -13.5 -117.501s-23.833 -57.334 -44.5 -77.001s-47.667 -33.667 -81 -42s-74.333 -12.5 -123 -12.5h-92c-48.667 0 -89.667 4.16699 -123 12.5s-60.333 22.333 -81 42s-35.5 45.334 -44.5 77.001s-13.5 70.834 -13.5 117.501v247zM513.999 917.994
c-16.667 -58.667 -47.665 -88 -92.998 -88c-9.33301 0 -20 1.66699 -32 5l-47 14c-10 3.33301 -18.667 5 -26 5c-19.333 0 -34.333 -12 -45 -36h-39c7.33301 29.333 19.166 51.5 35.499 66.5s36.166 22.5 59.499 22.5c10 0 18.667 -1.33301 26 -4l47 -15
c5.33301 -2 10.333 -3.33301 15 -4s8.66699 -1 12 -1c21.333 0 37 11.667 47 35h40z" />
    <glyph glyph-name="Odieresis" unicode="&#xd6;" horiz-adv-x="745" 
d="M350 660c-36 0 -67 -1.66992 -93 -5.00293s-49.333 -13.666 -70 -30.999c-18 -15.333 -29 -35.666 -33 -60.999s-6 -57.666 -6 -96.999v-206c0 -39.333 2 -71.5 6 -96.5s15 -45.167 33 -60.5c20.667 -17.333 44 -27.666 70 -30.999s57 -5 93 -5h45
c36 0 67.167 1.66699 93.5 5s49.833 13.666 70.5 30.999c18 15.333 28.833 35.666 32.5 60.999s5.5 57.333 5.5 96v207c0 38.667 -2 70.834 -6 96.501s-15 46.167 -33 61.5c-20 17.333 -43.167 27.5 -69.5 30.5s-57.5 4.5 -93.5 4.5h-45zM65 486.997
c0 46.667 4.49902 85.8311 13.499 117.498s23.833 57.334 44.5 77.001s47.667 33.667 81 42s74.333 12.5 123 12.5h92c48.667 0 89.834 -4.16699 123.501 -12.5s60.667 -22.166 81 -41.499s35 -44.833 44 -76.5s13.5 -71.167 13.5 -118.5v-247
c0 -46.667 -4.5 -85.834 -13.5 -117.501s-23.833 -57.334 -44.5 -77.001s-47.667 -33.667 -81 -42s-74.333 -12.5 -123 -12.5h-92c-48.667 0 -89.667 4.16699 -123 12.5s-60.333 22.333 -81 42s-35.5 45.334 -44.5 77.001s-13.5 70.834 -13.5 117.501v247zM416.999 906.994
h69v-80h-69v80zM259.999 906.994h69v-80h-69v80z" />
    <glyph glyph-name="multiply" unicode="&#xd7;" horiz-adv-x="833" 
d="M653 567l34 -34l-235 -235l235 -235l-34 -34l-235 235l-235 -235l-34 34l235 235l-235 235l34 34l235 -235z" />
    <glyph glyph-name="Oslash" unicode="&#xd8;" horiz-adv-x="745" 
d="M537 650c-12 4 -28.333 6.66699 -49 8s-45.667 2 -75 2h-81c-32.667 0 -61 -1.5 -85 -4.5s-45.333 -12.167 -64 -27.5c-16.667 -14 -26.667 -32.5 -30 -55.5s-5 -52.5 -5 -88.5v-241c0 -21.333 0.5 -41.5 1.5 -60.5s3.16699 -37.5 6.5 -55.5zM208 76
c18.667 -4 38.332 -6.5 58.999 -7.5s42.334 -1.5 65.001 -1.5h81c32.667 0 61 1.5 85 4.5s45.333 12.167 64 27.5c16.667 14 26.667 32.5 30 55.5s5 52.5 5 88.5v241c0 48 -2 86.667 -6 116zM64.998 487c0 46.667 4.50098 85.834 13.501 117.501s23.833 57.334 44.5 77.001
s47.667 33.667 81 42s74.333 12.5 123 12.5h92c32 0 61.167 -1.33301 87.5 -4s51.166 -9.66699 74.499 -21l42 58l58 -44l-43 -59c17.333 -22.667 28.833 -48.5 34.5 -77.5s8.5 -62.833 8.5 -101.5v-247c0 -46.667 -4.5 -85.834 -13.5 -117.501
s-23.833 -57.334 -44.5 -77.001s-47.667 -33.667 -81 -42s-74.333 -12.5 -123 -12.5h-92c-36.667 0 -68.167 1.5 -94.5 4.5s-48.5 10.167 -66.5 21.5l-43 -59l-59 45l45 61c-18 18.667 -29.833 42.167 -35.5 70.5s-8.5 63.5 -8.5 105.5v247z" />
    <glyph glyph-name="Ugrave" unicode="&#xd9;" horiz-adv-x="748" 
d="M162 727l0.00292969 -476.999c0 -35.333 1.66699 -64.333 5 -87s13 -41.334 29 -56.001c17.333 -15.333 37.166 -24.5 59.499 -27.5s49.166 -4.5 80.499 -4.5h76c31.333 0 58.333 1.5 81 4.5s42.667 12.167 60 27.5c15.333 14 24.666 32.333 27.999 55s5 52 5 88v477h81
v-487c0 -46.667 -4.33301 -85.834 -13 -117.501s-22.667 -57.334 -42 -77.001s-45 -33.667 -77 -42s-71 -12.5 -117 -12.5h-88c-46 0 -85 4.16699 -117 12.5s-57.667 22.333 -77 42s-33.333 45.334 -42 77.001s-13 70.834 -13 117.501v487h81zM259.003 960.001h74l102 -170
h-45z" />
    <glyph glyph-name="Uacute" unicode="&#xda;" horiz-adv-x="748" 
d="M162 727l0.00292969 -476.999c0 -35.333 1.66699 -64.333 5 -87s13 -41.334 29 -56.001c17.333 -15.333 37.166 -24.5 59.499 -27.5s49.166 -4.5 80.499 -4.5h76c31.333 0 58.333 1.5 81 4.5s42.667 12.167 60 27.5c15.333 14 24.666 32.333 27.999 55s5 52 5 88v477h81
v-487c0 -46.667 -4.33301 -85.834 -13 -117.501s-22.667 -57.334 -42 -77.001s-45 -33.667 -77 -42s-71 -12.5 -117 -12.5h-88c-46 0 -85 4.16699 -117 12.5s-57.667 22.333 -77 42s-33.333 45.334 -42 77.001s-13 70.834 -13 117.501v487h81zM313.003 790.001l102 170h74
l-131 -170h-45z" />
    <glyph glyph-name="Ucircumflex" unicode="&#xdb;" horiz-adv-x="748" 
d="M162 727l0.00292969 -476.999c0 -35.333 1.66699 -64.333 5 -87s13 -41.334 29 -56.001c17.333 -15.333 37.166 -24.5 59.499 -27.5s49.166 -4.5 80.499 -4.5h76c31.333 0 58.333 1.5 81 4.5s42.667 12.167 60 27.5c15.333 14 24.666 32.333 27.999 55s5 52 5 88v477h81
v-487c0 -46.667 -4.33301 -85.834 -13 -117.501s-22.667 -57.334 -42 -77.001s-45 -33.667 -77 -42s-71 -12.5 -117 -12.5h-88c-46 0 -85 4.16699 -117 12.5s-57.667 22.333 -77 42s-33.333 45.334 -42 77.001s-13 70.834 -13 117.501v487h81zM337.003 960.001h74l98 -170
h-45l-90 128l-90 -128h-45z" />
    <glyph glyph-name="Udieresis" unicode="&#xdc;" horiz-adv-x="748" 
d="M162 727l0.00292969 -476.999c0 -35.333 1.66699 -64.333 5 -87s13 -41.334 29 -56.001c17.333 -15.333 37.166 -24.5 59.499 -27.5s49.166 -4.5 80.499 -4.5h76c31.333 0 58.333 1.5 81 4.5s42.667 12.167 60 27.5c15.333 14 24.666 32.333 27.999 55s5 52 5 88v477h81
v-487c0 -46.667 -4.33301 -85.834 -13 -117.501s-22.667 -57.334 -42 -77.001s-45 -33.667 -77 -42s-71 -12.5 -117 -12.5h-88c-46 0 -85 4.16699 -117 12.5s-57.667 22.333 -77 42s-33.333 45.334 -42 77.001s-13 70.834 -13 117.501v487h81zM418.003 907.001h69v-80h-69
v80zM261.003 907.001h69v-80h-69v80z" />
    <glyph glyph-name="Yacute" unicode="&#xdd;" horiz-adv-x="595" 
d="M258 0v322l-301 405h95l245 -339l245 339h95l-300 -404v-323h-79zM237 790l102 170h74l-131 -170h-45z" />
    <glyph glyph-name="Thorn" unicode="&#xde;" horiz-adv-x="655" 
d="M168 218h225.001c22 0 41.333 1 58 3s30.5 6.16699 41.5 12.5s19.167 15.5 24.5 27.5s8 28.333 8 49v107c0 20.667 -2.5 37 -7.5 49s-12.833 21.167 -23.5 27.5s-24.334 10.5 -41.001 12.5s-36.667 3 -60 3h-225v-291zM168.001 727v-140.999h226
c38.667 0 71.667 -2.5 99 -7.5s49.666 -13.833 66.999 -26.5s29.833 -29.667 37.5 -51s11.5 -48.333 11.5 -81v-111c0 -33.333 -3.83301 -60.833 -11.5 -82.5s-20 -38.834 -37 -51.501s-39.167 -21.5 -66.5 -26.5s-60.666 -7.5 -99.999 -7.5h-226v-141h-80v727h80z" />
    <glyph glyph-name="germandbls" unicode="&#xdf;" horiz-adv-x="528" 
d="M62 522c0 37.333 3.16504 68.832 9.49805 94.499s17 46.5 32 62.5s34.833 27.5 59.5 34.5s55.667 10.5 93 10.5c35.333 0 65.5 -3.33301 90.5 -10s45.5 -17.334 61.5 -32.001s27.667 -33.667 35 -57s11 -52 11 -86c0 -37.333 -6.16699 -66.5 -18.5 -87.5
s-34.166 -37.167 -65.499 -48.5c22.667 -4.66699 41.334 -11.834 56.001 -21.501s26.334 -22.5 35.001 -38.5s14.834 -35 18.501 -57s5.5 -48 5.5 -78c0 -38 -3 -70.667 -9 -98s-16 -49.666 -30 -66.999s-32.333 -30.166 -55 -38.499s-50.334 -12.5 -83.001 -12.5
c-22 0 -47.333 2 -76 6v70c19.333 -4.66699 40 -7 62 -7c22.667 0 41.334 2.33301 56.001 7s26 12.667 34 24s13.5 26.333 16.5 45s4.5 42.334 4.5 71.001s-1 52.834 -3 72.501s-7 35.667 -15 48s-19.833 21.166 -35.5 26.499s-36.834 8 -63.501 8h-56v63h43
c39.333 0 66.166 9 80.499 27s21.5 48.667 21.5 92c0 22 -2.16699 40 -6.5 54s-11.166 25.333 -20.499 34s-21.833 14.667 -37.5 18s-34.834 5 -57.501 5c-26 0 -46.833 -2.5 -62.5 -7.5s-27.5 -13 -35.5 -24s-13.167 -25.5 -15.5 -43.5s-3.5 -40.333 -3.5 -67v-514h-76v522
z" />
    <glyph glyph-name="agrave" unicode="&#xe0;" horiz-adv-x="565" 
d="M415 185c0 25.333 -13 43.5039 -39 54.5039s-65 16.5 -117 16.5c-24 0 -44 -1.33301 -60 -4s-28.833 -7.33398 -38.5 -14.001s-16.5 -15.834 -20.5 -27.501s-6 -26.834 -6 -45.501c0 -20.667 2 -37.5 6 -50.5s11 -23.333 21 -31s23.667 -12.834 41 -15.501s39 -4 65 -4
c50 0 87.167 5.83301 111.5 17.5s36.5 28.167 36.5 49.5v54zM419 54.0039c-12.667 -22.667 -32.166 -38.501 -58.499 -47.501s-60.833 -13.5 -103.5 -13.5c-37.333 0 -69 2.16699 -95 6.5s-47 12.5 -63 24.5s-27.5 28.667 -34.5 50s-10.5 48.666 -10.5 81.999
c0 32.667 2.83301 59.834 8.5 81.501s16.5 39.167 32.5 52.5c14 11.333 33.833 19 59.5 23s58.5 6 98.5 6c42 0 76.167 -3.5 102.5 -10.5s46.166 -20.167 59.499 -39.5v89c0 22.667 -2 40.667 -6 54s-11.5 23.333 -22.5 30s-26 11 -45 13s-43.5 3 -73.5 3
c-21.333 0 -39.5 -0.833008 -54.5 -2.5s-27.333 -5.16699 -37 -10.5s-16.667 -12.666 -21 -21.999s-6.5 -21.333 -6.5 -36h-76v12c0 46.667 15.333 78.667 46 96s78.667 26 144 26c48 0 87.333 -2 118 -6s53.667 -11.667 69 -23c19.333 -15.333 31 -33.5 35 -54.5
s6 -46.833 6 -77.5v-360h-69zM168.001 745.003h74l102 -170h-45z" />
    <glyph glyph-name="aacute" unicode="&#xe1;" horiz-adv-x="565" 
d="M415 185c0 25.333 -13 43.5039 -39 54.5039s-65 16.5 -117 16.5c-24 0 -44 -1.33301 -60 -4s-28.833 -7.33398 -38.5 -14.001s-16.5 -15.834 -20.5 -27.501s-6 -26.834 -6 -45.501c0 -20.667 2 -37.5 6 -50.5s11 -23.333 21 -31s23.667 -12.834 41 -15.501s39 -4 65 -4
c50 0 87.167 5.83301 111.5 17.5s36.5 28.167 36.5 49.5v54zM419 54.0039c-12.667 -22.667 -32.166 -38.501 -58.499 -47.501s-60.833 -13.5 -103.5 -13.5c-37.333 0 -69 2.16699 -95 6.5s-47 12.5 -63 24.5s-27.5 28.667 -34.5 50s-10.5 48.666 -10.5 81.999
c0 32.667 2.83301 59.834 8.5 81.501s16.5 39.167 32.5 52.5c14 11.333 33.833 19 59.5 23s58.5 6 98.5 6c42 0 76.167 -3.5 102.5 -10.5s46.166 -20.167 59.499 -39.5v89c0 22.667 -2 40.667 -6 54s-11.5 23.333 -22.5 30s-26 11 -45 13s-43.5 3 -73.5 3
c-21.333 0 -39.5 -0.833008 -54.5 -2.5s-27.333 -5.16699 -37 -10.5s-16.667 -12.666 -21 -21.999s-6.5 -21.333 -6.5 -36h-76v12c0 46.667 15.333 78.667 46 96s78.667 26 144 26c48 0 87.333 -2 118 -6s53.667 -11.667 69 -23c19.333 -15.333 31 -33.5 35 -54.5
s6 -46.833 6 -77.5v-360h-69zM222.001 575.003l102 170h74l-131 -170h-45z" />
    <glyph glyph-name="acircumflex" unicode="&#xe2;" horiz-adv-x="565" 
d="M415 185c0 25.333 -13 43.5039 -39 54.5039s-65 16.5 -117 16.5c-24 0 -44 -1.33301 -60 -4s-28.833 -7.33398 -38.5 -14.001s-16.5 -15.834 -20.5 -27.501s-6 -26.834 -6 -45.501c0 -20.667 2 -37.5 6 -50.5s11 -23.333 21 -31s23.667 -12.834 41 -15.501s39 -4 65 -4
c50 0 87.167 5.83301 111.5 17.5s36.5 28.167 36.5 49.5v54zM419 54.0039c-12.667 -22.667 -32.166 -38.501 -58.499 -47.501s-60.833 -13.5 -103.5 -13.5c-37.333 0 -69 2.16699 -95 6.5s-47 12.5 -63 24.5s-27.5 28.667 -34.5 50s-10.5 48.666 -10.5 81.999
c0 32.667 2.83301 59.834 8.5 81.501s16.5 39.167 32.5 52.5c14 11.333 33.833 19 59.5 23s58.5 6 98.5 6c42 0 76.167 -3.5 102.5 -10.5s46.166 -20.167 59.499 -39.5v89c0 22.667 -2 40.667 -6 54s-11.5 23.333 -22.5 30s-26 11 -45 13s-43.5 3 -73.5 3
c-21.333 0 -39.5 -0.833008 -54.5 -2.5s-27.333 -5.16699 -37 -10.5s-16.667 -12.666 -21 -21.999s-6.5 -21.333 -6.5 -36h-76v12c0 46.667 15.333 78.667 46 96s78.667 26 144 26c48 0 87.333 -2 118 -6s53.667 -11.667 69 -23c19.333 -15.333 31 -33.5 35 -54.5
s6 -46.833 6 -77.5v-360h-69zM246.001 745.003h74l98 -170h-45l-90 128l-90 -128h-45z" />
    <glyph glyph-name="atilde" unicode="&#xe3;" horiz-adv-x="565" 
d="M415 185c0 25.333 -13 43.5039 -39 54.5039s-65 16.5 -117 16.5c-24 0 -44 -1.33301 -60 -4s-28.833 -7.33398 -38.5 -14.001s-16.5 -15.834 -20.5 -27.501s-6 -26.834 -6 -45.501c0 -20.667 2 -37.5 6 -50.5s11 -23.333 21 -31s23.667 -12.834 41 -15.501s39 -4 65 -4
c50 0 87.167 5.83301 111.5 17.5s36.5 28.167 36.5 49.5v54zM419 54.0039c-12.667 -22.667 -32.166 -38.501 -58.499 -47.501s-60.833 -13.5 -103.5 -13.5c-37.333 0 -69 2.16699 -95 6.5s-47 12.5 -63 24.5s-27.5 28.667 -34.5 50s-10.5 48.666 -10.5 81.999
c0 32.667 2.83301 59.834 8.5 81.501s16.5 39.167 32.5 52.5c14 11.333 33.833 19 59.5 23s58.5 6 98.5 6c42 0 76.167 -3.5 102.5 -10.5s46.166 -20.167 59.499 -39.5v89c0 22.667 -2 40.667 -6 54s-11.5 23.333 -22.5 30s-26 11 -45 13s-43.5 3 -73.5 3
c-21.333 0 -39.5 -0.833008 -54.5 -2.5s-27.333 -5.16699 -37 -10.5s-16.667 -12.666 -21 -21.999s-6.5 -21.333 -6.5 -36h-76v12c0 46.667 15.333 78.667 46 96s78.667 26 144 26c48 0 87.333 -2 118 -6s53.667 -11.667 69 -23c19.333 -15.333 31 -33.5 35 -54.5
s6 -46.833 6 -77.5v-360h-69zM424.001 703.003c-16.667 -58.667 -47.665 -88 -92.998 -88c-9.33301 0 -20 1.66699 -32 5l-47 14c-10 3.33301 -18.667 5 -26 5c-19.333 0 -34.333 -12 -45 -36h-39c7.33301 29.333 19.166 51.5 35.499 66.5s36.166 22.5 59.499 22.5
c10 0 18.667 -1.33301 26 -4l47 -15c5.33301 -2 10.333 -3.33301 15 -4s8.66699 -1 12 -1c21.333 0 37 11.667 47 35h40z" />
    <glyph glyph-name="adieresis" unicode="&#xe4;" horiz-adv-x="565" 
d="M415 185c0 25.333 -13 43.5039 -39 54.5039s-65 16.5 -117 16.5c-24 0 -44 -1.33301 -60 -4s-28.833 -7.33398 -38.5 -14.001s-16.5 -15.834 -20.5 -27.501s-6 -26.834 -6 -45.501c0 -20.667 2 -37.5 6 -50.5s11 -23.333 21 -31s23.667 -12.834 41 -15.501s39 -4 65 -4
c50 0 87.167 5.83301 111.5 17.5s36.5 28.167 36.5 49.5v54zM419 54.0039c-12.667 -22.667 -32.166 -38.501 -58.499 -47.501s-60.833 -13.5 -103.5 -13.5c-37.333 0 -69 2.16699 -95 6.5s-47 12.5 -63 24.5s-27.5 28.667 -34.5 50s-10.5 48.666 -10.5 81.999
c0 32.667 2.83301 59.834 8.5 81.501s16.5 39.167 32.5 52.5c14 11.333 33.833 19 59.5 23s58.5 6 98.5 6c42 0 76.167 -3.5 102.5 -10.5s46.166 -20.167 59.499 -39.5v89c0 22.667 -2 40.667 -6 54s-11.5 23.333 -22.5 30s-26 11 -45 13s-43.5 3 -73.5 3
c-21.333 0 -39.5 -0.833008 -54.5 -2.5s-27.333 -5.16699 -37 -10.5s-16.667 -12.666 -21 -21.999s-6.5 -21.333 -6.5 -36h-76v12c0 46.667 15.333 78.667 46 96s78.667 26 144 26c48 0 87.333 -2 118 -6s53.667 -11.667 69 -23c19.333 -15.333 31 -33.5 35 -54.5
s6 -46.833 6 -77.5v-360h-69zM327.001 692.003h69v-80h-69v80zM170.001 692.003h69v-80h-69v80z" />
    <glyph glyph-name="aring" unicode="&#xe5;" horiz-adv-x="565" 
d="M217 667c0 -20.667 7 -38 21 -52s31.333 -21 52 -21c20 0 37.167 7 51.5 21s21.5 31.333 21.5 52s-7 38 -21 52s-31.333 21 -52 21s-38 -7 -52 -21s-21 -31.333 -21 -52zM172 667c0 16.667 3 32 9 46s14.333 26.333 25 37s23.167 19 37.5 25s29.833 9 46.5 9
s32.167 -3 46.5 -9s26.833 -14.333 37.5 -25s19 -23 25 -37s9 -29.333 9 -46s-3 -32.167 -9 -46.5s-14.333 -26.666 -25 -36.999s-23.167 -18.5 -37.5 -24.5s-29.833 -9 -46.5 -9s-32.167 3 -46.5 9s-26.833 14.167 -37.5 24.5s-19 22.666 -25 36.999s-9 29.833 -9 46.5z
M419 54c-12.667 -22.667 -32.167 -38.5029 -58.5 -47.5029s-60.833 -13.5 -103.5 -13.5c-37.333 0 -69 2.16699 -95 6.5s-47 12.5 -63 24.5s-27.5 28.667 -34.5 50s-10.5 48.666 -10.5 81.999c0 32.667 2.83301 59.834 8.5 81.501s16.5 39.167 32.5 52.5
c14 11.333 33.833 19 59.5 23s58.5 6 98.5 6c42 0 76.167 -3.5 102.5 -10.5s46.166 -20.167 59.499 -39.5v89c0 22.667 -2 40.667 -6 54s-11.5 23.333 -22.5 30s-26 11 -45 13s-43.5 3 -73.5 3c-21.333 0 -39.5 -0.833008 -54.5 -2.5s-27.333 -5.16699 -37 -10.5
s-16.667 -12.666 -21 -21.999s-6.5 -21.333 -6.5 -36h-76v10c0 24.667 3.83301 45 11.5 61s19.667 28.667 36 38s37 15.833 62 19.5s54.5 5.5 88.5 5.5c52 0 93.833 -2.66699 125.5 -8s54.834 -17.666 69.501 -36.999c12 -15.333 19.167 -31.666 21.5 -48.999
s3.5 -36.333 3.5 -57v-370h-69zM415 184.997c0 25.333 -13 43.5039 -39 54.5039s-65 16.5 -117 16.5c-24 0 -44 -1.33301 -60 -4s-28.833 -7.33398 -38.5 -14.001s-16.5 -15.834 -20.5 -27.501s-6 -26.834 -6 -45.501c0 -20.667 2 -37.5 6 -50.5s11 -23.333 21 -31
s23.667 -12.834 41 -15.501s39 -4 65 -4c50 0 87.167 5.83301 111.5 17.5s36.5 28.167 36.5 49.5v54z" />
    <glyph glyph-name="ae" unicode="&#xe6;" horiz-adv-x="917" 
d="M781 307v20c0 25.333 -2.16699 46 -6.5 62s-11.5 28.667 -21.5 38s-23.167 15.666 -39.5 18.999s-36.5 5 -60.5 5h-36c-24 0 -44.167 -1.66699 -60.5 -5s-29.5 -9.66602 -39.5 -18.999s-17.167 -22 -21.5 -38s-6.5 -36.667 -6.5 -62v-20h292zM73 397
c0 24.667 3.83301 44.9971 11.5 60.9971s19.5 28.667 35.5 38s36.5 15.833 61.5 19.5s54.833 5.5 89.5 5.5c51.333 0 92 -3.33301 122 -10s51.667 -22 65 -46c16.667 22.667 37.667 37.667 63 45s57 11 95 11h37c38.667 0 71.167 -3.5 97.5 -10.5s47.5 -18.5 63.5 -34.5
s27.5 -37 34.5 -63s10.5 -57.667 10.5 -95v-78h-370c-0.666992 -8 -1 -15.5 -1 -22.5v-20.5c0 -27.333 2 -49.833 6 -67.5s10.833 -31.5 20.5 -41.5s22.834 -16.833 39.501 -20.5s37.667 -5.5 63 -5.5h36c20.667 0 38.5 1.16699 53.5 3.5s27.5 6.83301 37.5 13.5
s17.833 15.834 23.5 27.501s9.5 26.5 11.5 44.5h79c-4 -57.333 -22.5 -98 -55.5 -122s-82.833 -36 -149.5 -36h-36c-22.667 0 -43 1 -61 3s-34 5.83301 -48 11.5s-26.167 13.667 -36.5 24s-19.5 23.5 -27.5 39.5c-21.333 -30 -48 -50.5 -80 -61.5s-73 -16.5 -123 -16.5
c-34.667 0 -64 2.5 -88 7.5s-43.333 13.833 -58 26.5s-25.167 29.5 -31.5 50.5s-9.5 47.167 -9.5 78.5c0 32.667 2.83301 59.834 8.5 81.501s16.5 39.167 32.5 52.5c14 11.333 33.833 19 59.5 23s58.5 6 98.5 6c42 0 76.167 -3.5 102.5 -10.5s46.166 -20.167 59.499 -39.5
v89c0 22.667 -2 40.667 -6 54s-11.5 23.333 -22.5 30s-26 11 -45 13s-43.5 3 -73.5 3c-21.333 0 -39.5 -0.833008 -54.5 -2.5s-27.167 -5 -36.5 -10s-16.333 -12.167 -21 -21.5s-7 -21.666 -7 -36.999h-76v10zM415 184.997c0 25.333 -13 43.5039 -39 54.5039
s-65 16.5 -117 16.5c-24 0 -44 -1.33301 -60 -4s-28.833 -7.33398 -38.5 -14.001s-16.5 -15.834 -20.5 -27.501s-6 -26.834 -6 -45.501c0 -20.667 2 -37.5 6 -50.5s11 -23.333 21 -31s23.667 -12.834 41 -15.501s39 -4 65 -4c50 0 87.167 5.83301 111.5 17.5
s36.5 28.167 36.5 49.5v54z" />
    <glyph glyph-name="ccedilla" unicode="&#xe7;" horiz-adv-x="565" 
d="M265 -7c-38.667 0 -71.167 3.49805 -97.5 10.498s-47.666 18.5 -63.999 34.5s-28 37 -35 63s-10.5 57.667 -10.5 95v122c0 37.333 3.5 69 10.5 95s18.5 47 34.5 63s37.167 27.5 63.5 34.5s58.833 10.5 97.5 10.5h36c70.667 0 122.5 -13.667 155.5 -41
s50.167 -73.333 51.5 -138h-79c-0.666992 22.667 -3.5 41 -8.5 55s-12.5 25 -22.5 33s-23 13.5 -39 16.5s-35.333 4.5 -58 4.5h-36c-28 0 -50.5 -2.16699 -67.5 -6.5s-29.833 -12.166 -38.5 -23.499s-14.334 -26.666 -17.001 -45.999s-4 -44 -4 -74v-88
c0 -30 1.33301 -54.667 4 -74s8.33398 -34.833 17.001 -46.5s21.5 -19.667 38.5 -24s39.5 -6.5 67.5 -6.5h36c23.333 0 43.166 1.66699 59.499 5s29.5 9.5 39.5 18.5s17.333 21.167 22 36.5s7 35 7 59v9h79v-10c0 -68 -16.167 -116.167 -48.5 -144.5
s-84.833 -42.5 -157.5 -42.5h-36zM288 -56.002l31.0029 -0.00292969c16.667 0 30 -1 40 -3s17.5 -6 22.5 -12s8.16699 -14.167 9.5 -24.5s2 -23.833 2 -40.5c0 -18.667 -0.666992 -33.667 -2 -45s-4.5 -20.166 -9.5 -26.499s-12.333 -10.666 -22 -12.999
s-22.834 -3.5 -39.501 -3.5h-129v43h104c8.66699 0 15.667 0.5 21 1.5s9.16602 3 11.499 6s3.83301 7.66699 4.5 14s1 14.833 1 25.5s-0.333008 19 -1 25s-2.33398 10.333 -5.00098 13s-6.66699 4.33398 -12 5.00098s-12.333 1 -21 1h-38v90h32v-56z" />
    <glyph glyph-name="egrave" unicode="&#xe8;" horiz-adv-x="565" 
d="M428 307v20c0 25.333 -2.16699 46 -6.5 62s-11.5 28.667 -21.5 38s-23.167 15.666 -39.5 18.999s-36.5 5 -60.5 5h-36c-24 0 -44.167 -1.66699 -60.5 -5s-29.5 -9.66602 -39.5 -18.999s-17 -22 -21 -38s-6 -36.667 -6 -62v-20h291zM265 -7
c-38.667 0 -71.166 3.49805 -97.499 10.498s-47.666 18.5 -63.999 34.5s-28 37 -35 63s-10.5 57.667 -10.5 95v122c0 37.333 3.5 69 10.5 95s18.5 47 34.5 63s37.167 27.5 63.5 34.5s58.833 10.5 97.5 10.5h36c38.667 0 71.167 -3.5 97.5 -10.5s47.666 -18.5 63.999 -34.5
s28 -37 35 -63s10.5 -57.667 10.5 -95v-78h-370c-0.666992 -8 -1 -15.667 -1 -23v-21c0 -27.333 2 -49.666 6 -66.999s10.833 -31 20.5 -41s22.667 -16.833 39 -20.5s37.166 -5.5 62.499 -5.5h36c20.667 0 38.5 1.16699 53.5 3.5s27.667 6.83301 38 13.5
s18.333 15.834 24 27.501s9.5 26.5 11.5 44.5h79c-4 -57.333 -22.5 -98 -55.5 -122s-82.833 -36 -149.5 -36h-36zM171.001 744.998h74l102 -170h-45z" />
    <glyph glyph-name="eacute" unicode="&#xe9;" horiz-adv-x="565" 
d="M428 307v20c0 25.333 -2.16699 46 -6.5 62s-11.5 28.667 -21.5 38s-23.167 15.666 -39.5 18.999s-36.5 5 -60.5 5h-36c-24 0 -44.167 -1.66699 -60.5 -5s-29.5 -9.66602 -39.5 -18.999s-17 -22 -21 -38s-6 -36.667 -6 -62v-20h291zM265 -7
c-38.667 0 -71.166 3.49805 -97.499 10.498s-47.666 18.5 -63.999 34.5s-28 37 -35 63s-10.5 57.667 -10.5 95v122c0 37.333 3.5 69 10.5 95s18.5 47 34.5 63s37.167 27.5 63.5 34.5s58.833 10.5 97.5 10.5h36c38.667 0 71.167 -3.5 97.5 -10.5s47.666 -18.5 63.999 -34.5
s28 -37 35 -63s10.5 -57.667 10.5 -95v-78h-370c-0.666992 -8 -1 -15.667 -1 -23v-21c0 -27.333 2 -49.666 6 -66.999s10.833 -31 20.5 -41s22.667 -16.833 39 -20.5s37.166 -5.5 62.499 -5.5h36c20.667 0 38.5 1.16699 53.5 3.5s27.667 6.83301 38 13.5
s18.333 15.834 24 27.501s9.5 26.5 11.5 44.5h79c-4 -57.333 -22.5 -98 -55.5 -122s-82.833 -36 -149.5 -36h-36zM225.001 574.998l102 170h74l-131 -170h-45z" />
    <glyph glyph-name="ecircumflex" unicode="&#xea;" horiz-adv-x="565" 
d="M428 307v20c0 25.333 -2.16699 46 -6.5 62s-11.5 28.667 -21.5 38s-23.167 15.666 -39.5 18.999s-36.5 5 -60.5 5h-36c-24 0 -44.167 -1.66699 -60.5 -5s-29.5 -9.66602 -39.5 -18.999s-17 -22 -21 -38s-6 -36.667 -6 -62v-20h291zM265 -7
c-38.667 0 -71.166 3.49805 -97.499 10.498s-47.666 18.5 -63.999 34.5s-28 37 -35 63s-10.5 57.667 -10.5 95v122c0 37.333 3.5 69 10.5 95s18.5 47 34.5 63s37.167 27.5 63.5 34.5s58.833 10.5 97.5 10.5h36c38.667 0 71.167 -3.5 97.5 -10.5s47.666 -18.5 63.999 -34.5
s28 -37 35 -63s10.5 -57.667 10.5 -95v-78h-370c-0.666992 -8 -1 -15.667 -1 -23v-21c0 -27.333 2 -49.666 6 -66.999s10.833 -31 20.5 -41s22.667 -16.833 39 -20.5s37.166 -5.5 62.499 -5.5h36c20.667 0 38.5 1.16699 53.5 3.5s27.667 6.83301 38 13.5
s18.333 15.834 24 27.501s9.5 26.5 11.5 44.5h79c-4 -57.333 -22.5 -98 -55.5 -122s-82.833 -36 -149.5 -36h-36zM249.001 744.998h74l98 -170h-45l-90 128l-90 -128h-45z" />
    <glyph glyph-name="edieresis" unicode="&#xeb;" horiz-adv-x="565" 
d="M428 307v20c0 25.333 -2.16699 46 -6.5 62s-11.5 28.667 -21.5 38s-23.167 15.666 -39.5 18.999s-36.5 5 -60.5 5h-36c-24 0 -44.167 -1.66699 -60.5 -5s-29.5 -9.66602 -39.5 -18.999s-17 -22 -21 -38s-6 -36.667 -6 -62v-20h291zM265 -7
c-38.667 0 -71.166 3.49805 -97.499 10.498s-47.666 18.5 -63.999 34.5s-28 37 -35 63s-10.5 57.667 -10.5 95v122c0 37.333 3.5 69 10.5 95s18.5 47 34.5 63s37.167 27.5 63.5 34.5s58.833 10.5 97.5 10.5h36c38.667 0 71.167 -3.5 97.5 -10.5s47.666 -18.5 63.999 -34.5
s28 -37 35 -63s10.5 -57.667 10.5 -95v-78h-370c-0.666992 -8 -1 -15.667 -1 -23v-21c0 -27.333 2 -49.666 6 -66.999s10.833 -31 20.5 -41s22.667 -16.833 39 -20.5s37.166 -5.5 62.499 -5.5h36c20.667 0 38.5 1.16699 53.5 3.5s27.667 6.83301 38 13.5
s18.333 15.834 24 27.501s9.5 26.5 11.5 44.5h79c-4 -57.333 -22.5 -98 -55.5 -122s-82.833 -36 -149.5 -36h-36zM330.001 691.998h69v-80h-69v80zM173.001 691.998h69v-80h-69v80z" />
    <glyph glyph-name="igrave" unicode="&#xec;" horiz-adv-x="234" 
d="M79 514h76v-514h-76v514zM3 745h74l102 -170h-45z" />
    <glyph glyph-name="iacute" unicode="&#xed;" horiz-adv-x="234" 
d="M79 514h76v-514h-76v514zM57 575l102 170h74l-131 -170h-45z" />
    <glyph glyph-name="icircumflex" unicode="&#xee;" horiz-adv-x="234" 
d="M79 514h76v-514h-76v514zM81 745h74l98 -170h-45l-90 128l-90 -128h-45z" />
    <glyph glyph-name="idieresis" unicode="&#xef;" horiz-adv-x="234" 
d="M79 514h76v-514h-76v514zM162 692h69v-80h-69v80zM5 692h69v-80h-69v80z" />
    <glyph glyph-name="eth" unicode="&#xf0;" horiz-adv-x="565" 
d="M264 451c-28 0 -50.498 -2.16895 -67.498 -6.50195s-29.833 -12.166 -38.5 -23.499s-14.334 -26.666 -17.001 -45.999s-4 -44 -4 -74v-88c0 -30 1.33301 -54.667 4 -74s8.33398 -34.833 17.001 -46.5s21.5 -19.667 38.5 -24s39.5 -6.5 67.5 -6.5h36
c28 0 50.5 2.16699 67.5 6.5s30 12.166 39 23.499s14.833 26.833 17.5 46.5s4 44.5 4 74.5v88c0 22.667 -3.33301 43.334 -10 62.001s-15.834 34.5 -27.501 47.5s-25.334 23 -41.001 30s-32.167 10.5 -49.5 10.5h-36zM174.002 572.998l-20.999 56l141 46l-38 52h81l25 -32
l100 33l22 -55l-80 -27c30.667 -44.667 55.5 -93.5 74.5 -146.5s28.5 -113.5 28.5 -181.5v-122c0 -37.333 -3.5 -69 -10.5 -95s-18.5 -47 -34.5 -63s-37.167 -27.5 -63.5 -34.5s-58.833 -10.5 -97.5 -10.5h-36c-38.667 0 -71.167 3.5 -97.5 10.5s-47.666 18.5 -63.999 34.5
s-28 37 -35 63s-10.5 57.667 -10.5 95v122c0 37.333 3.5 69 10.5 95s18.5 47 34.5 63s37.167 27.5 63.5 34.5s58.833 10.5 97.5 10.5h29c26.667 0 50.167 -5.5 70.5 -16.5s39.166 -27.833 56.499 -50.5c-8 28 -18.833 56 -32.5 84s-30.834 57 -51.501 87z" />
    <glyph glyph-name="ntilde" unicode="&#xf1;" horiz-adv-x="576" 
d="M79 514l73.001 -0.000976562v-70c12.667 26.667 32.667 46.167 60 58.5s63.333 18.5 108 18.5c34 0 62.667 -3.33301 86 -10s42.166 -17.334 56.499 -32.001s24.5 -33.667 30.5 -57s9 -51.666 9 -84.999v-337h-76v321c0 24.667 -1.5 45.5 -4.5 62.5
s-8.66699 30.5 -17 40.5s-20 17.167 -35 21.5s-34.833 6.5 -59.5 6.5c-54 0 -93.333 -12.167 -118 -36.5s-37 -63.166 -37 -116.499v-299h-76v514zM444.001 702.999c-16.667 -58.667 -47.665 -88 -92.998 -88c-9.33301 0 -20 1.66699 -32 5l-47 14
c-10 3.33301 -18.667 5 -26 5c-19.333 0 -34.333 -12 -45 -36h-39c7.33301 29.333 19.166 51.5 35.499 66.5s36.166 22.5 59.499 22.5c10 0 18.667 -1.33301 26 -4l47 -15c5.33301 -2 10.333 -3.33301 15 -4s8.66699 -1 12 -1c21.333 0 37 11.667 47 35h40z" />
    <glyph glyph-name="ograve" unicode="&#xf2;" horiz-adv-x="565" 
d="M428 301c0 30 -1.33301 54.667 -4 74s-8.5 34.666 -17.5 45.999s-22 19.166 -39 23.499s-39.5 6.5 -67.5 6.5h-36c-28 0 -50.5 -2.16699 -67.5 -6.5s-29.833 -12.166 -38.5 -23.499s-14.334 -26.666 -17.001 -45.999s-4 -44 -4 -74v-88c0 -30 1.33301 -54.667 4 -74
s8.33398 -34.833 17.001 -46.5s21.5 -19.667 38.5 -24s39.5 -6.5 67.5 -6.5h36c28 0 50.5 2.16699 67.5 6.5s30 12.333 39 24s14.833 27.167 17.5 46.5s4 44 4 74v88zM265 -7c-38.667 0 -71.167 3.5 -97.5 10.5s-47.666 18.5 -63.999 34.5s-28 37 -35 63
s-10.5 57.667 -10.5 95v122c0 37.333 3.5 69 10.5 95s18.5 47 34.5 63s37.167 27.5 63.5 34.5s58.833 10.5 97.5 10.5h36c38.667 0 71.167 -3.5 97.5 -10.5s47.666 -18.5 63.999 -34.5s28 -37 35 -63s10.5 -57.667 10.5 -95v-122c0 -37.333 -3.5 -69 -10.5 -95
s-18.5 -47 -34.5 -63s-37.167 -27.5 -63.5 -34.5s-58.833 -10.5 -97.5 -10.5h-36zM168 745h74l102 -170h-45z" />
    <glyph glyph-name="oacute" unicode="&#xf3;" horiz-adv-x="565" 
d="M428 301c0 30 -1.33301 54.667 -4 74s-8.5 34.666 -17.5 45.999s-22 19.166 -39 23.499s-39.5 6.5 -67.5 6.5h-36c-28 0 -50.5 -2.16699 -67.5 -6.5s-29.833 -12.166 -38.5 -23.499s-14.334 -26.666 -17.001 -45.999s-4 -44 -4 -74v-88c0 -30 1.33301 -54.667 4 -74
s8.33398 -34.833 17.001 -46.5s21.5 -19.667 38.5 -24s39.5 -6.5 67.5 -6.5h36c28 0 50.5 2.16699 67.5 6.5s30 12.333 39 24s14.833 27.167 17.5 46.5s4 44 4 74v88zM265 -7c-38.667 0 -71.167 3.5 -97.5 10.5s-47.666 18.5 -63.999 34.5s-28 37 -35 63
s-10.5 57.667 -10.5 95v122c0 37.333 3.5 69 10.5 95s18.5 47 34.5 63s37.167 27.5 63.5 34.5s58.833 10.5 97.5 10.5h36c38.667 0 71.167 -3.5 97.5 -10.5s47.666 -18.5 63.999 -34.5s28 -37 35 -63s10.5 -57.667 10.5 -95v-122c0 -37.333 -3.5 -69 -10.5 -95
s-18.5 -47 -34.5 -63s-37.167 -27.5 -63.5 -34.5s-58.833 -10.5 -97.5 -10.5h-36zM222 575l102 170h74l-131 -170h-45z" />
    <glyph glyph-name="ocircumflex" unicode="&#xf4;" horiz-adv-x="565" 
d="M428 301c0 30 -1.33301 54.667 -4 74s-8.5 34.666 -17.5 45.999s-22 19.166 -39 23.499s-39.5 6.5 -67.5 6.5h-36c-28 0 -50.5 -2.16699 -67.5 -6.5s-29.833 -12.166 -38.5 -23.499s-14.334 -26.666 -17.001 -45.999s-4 -44 -4 -74v-88c0 -30 1.33301 -54.667 4 -74
s8.33398 -34.833 17.001 -46.5s21.5 -19.667 38.5 -24s39.5 -6.5 67.5 -6.5h36c28 0 50.5 2.16699 67.5 6.5s30 12.333 39 24s14.833 27.167 17.5 46.5s4 44 4 74v88zM265 -7c-38.667 0 -71.167 3.5 -97.5 10.5s-47.666 18.5 -63.999 34.5s-28 37 -35 63
s-10.5 57.667 -10.5 95v122c0 37.333 3.5 69 10.5 95s18.5 47 34.5 63s37.167 27.5 63.5 34.5s58.833 10.5 97.5 10.5h36c38.667 0 71.167 -3.5 97.5 -10.5s47.666 -18.5 63.999 -34.5s28 -37 35 -63s10.5 -57.667 10.5 -95v-122c0 -37.333 -3.5 -69 -10.5 -95
s-18.5 -47 -34.5 -63s-37.167 -27.5 -63.5 -34.5s-58.833 -10.5 -97.5 -10.5h-36zM246 745h74l98 -170h-45l-90 128l-90 -128h-45z" />
    <glyph glyph-name="otilde" unicode="&#xf5;" horiz-adv-x="565" 
d="M428 301c0 30 -1.33301 54.667 -4 74s-8.5 34.666 -17.5 45.999s-22 19.166 -39 23.499s-39.5 6.5 -67.5 6.5h-36c-28 0 -50.5 -2.16699 -67.5 -6.5s-29.833 -12.166 -38.5 -23.499s-14.334 -26.666 -17.001 -45.999s-4 -44 -4 -74v-88c0 -30 1.33301 -54.667 4 -74
s8.33398 -34.833 17.001 -46.5s21.5 -19.667 38.5 -24s39.5 -6.5 67.5 -6.5h36c28 0 50.5 2.16699 67.5 6.5s30 12.333 39 24s14.833 27.167 17.5 46.5s4 44 4 74v88zM265 -7c-38.667 0 -71.167 3.5 -97.5 10.5s-47.666 18.5 -63.999 34.5s-28 37 -35 63
s-10.5 57.667 -10.5 95v122c0 37.333 3.5 69 10.5 95s18.5 47 34.5 63s37.167 27.5 63.5 34.5s58.833 10.5 97.5 10.5h36c38.667 0 71.167 -3.5 97.5 -10.5s47.666 -18.5 63.999 -34.5s28 -37 35 -63s10.5 -57.667 10.5 -95v-122c0 -37.333 -3.5 -69 -10.5 -95
s-18.5 -47 -34.5 -63s-37.167 -27.5 -63.5 -34.5s-58.833 -10.5 -97.5 -10.5h-36zM424 703c-16.667 -58.667 -47.665 -88 -92.998 -88c-9.33301 0 -20 1.66699 -32 5l-47 14c-10 3.33301 -18.667 5 -26 5c-19.333 0 -34.333 -12 -45 -36h-39
c7.33301 29.333 19.166 51.5 35.499 66.5s36.166 22.5 59.499 22.5c10 0 18.667 -1.33301 26 -4l47 -15c5.33301 -2 10.333 -3.33301 15 -4s8.66699 -1 12 -1c21.333 0 37 11.667 47 35h40z" />
    <glyph glyph-name="odieresis" unicode="&#xf6;" horiz-adv-x="565" 
d="M428 301c0 30 -1.33301 54.667 -4 74s-8.5 34.666 -17.5 45.999s-22 19.166 -39 23.499s-39.5 6.5 -67.5 6.5h-36c-28 0 -50.5 -2.16699 -67.5 -6.5s-29.833 -12.166 -38.5 -23.499s-14.334 -26.666 -17.001 -45.999s-4 -44 -4 -74v-88c0 -30 1.33301 -54.667 4 -74
s8.33398 -34.833 17.001 -46.5s21.5 -19.667 38.5 -24s39.5 -6.5 67.5 -6.5h36c28 0 50.5 2.16699 67.5 6.5s30 12.333 39 24s14.833 27.167 17.5 46.5s4 44 4 74v88zM265 -7c-38.667 0 -71.167 3.5 -97.5 10.5s-47.666 18.5 -63.999 34.5s-28 37 -35 63
s-10.5 57.667 -10.5 95v122c0 37.333 3.5 69 10.5 95s18.5 47 34.5 63s37.167 27.5 63.5 34.5s58.833 10.5 97.5 10.5h36c38.667 0 71.167 -3.5 97.5 -10.5s47.666 -18.5 63.999 -34.5s28 -37 35 -63s10.5 -57.667 10.5 -95v-122c0 -37.333 -3.5 -69 -10.5 -95
s-18.5 -47 -34.5 -63s-37.167 -27.5 -63.5 -34.5s-58.833 -10.5 -97.5 -10.5h-36zM327 692h69v-80h-69v80zM170 692h69v-80h-69v80z" />
    <glyph glyph-name="divide" unicode="&#xf7;" horiz-adv-x="833" 
d="M417 178c14.667 0 27 -5 37 -15s15 -22.333 15 -37c0 -14 -4.83301 -26.167 -14.5 -36.5s-22.167 -15.5 -37.5 -15.5c-14.667 0 -27 5 -37 15s-15 22.333 -15 37s5.16699 27 15.5 37s22.5 15 36.5 15zM709 274h-585v48h585v-48zM417 523c14.667 0 27 -5.16699 37 -15.5
s15 -22.833 15 -37.5c0 -14 -4.83301 -26.167 -14.5 -36.5s-22.167 -15.5 -37.5 -15.5s-27.833 5 -37.5 15s-14.5 22.333 -14.5 37s5.16699 27.167 15.5 37.5s22.5 15.5 36.5 15.5z" />
    <glyph glyph-name="oslash" unicode="&#xf8;" horiz-adv-x="565" 
d="M380 445c-12 2.66699 -24.665 4.33203 -37.998 4.99902s-27.333 1 -42 1h-36c-28 0 -50.5 -2.16699 -67.5 -6.5s-29.833 -12.166 -38.5 -23.499s-14.334 -26.666 -17.001 -45.999s-4 -44 -4 -74v-88c0 -17.333 0.166992 -33.833 0.5 -49.5
s1.16602 -30.834 2.49902 -45.501zM265.002 -7.00195c-22.667 0 -43.6689 0.999023 -63.002 2.99902s-37.666 6.66699 -54.999 14l-52 -69l-58 44l52 71c-12.667 17.333 -21 37.333 -25 60s-6 49.334 -6 80.001v122c0 37.333 3.5 69 10.5 95s18.5 47 34.5 63
s37.167 27.5 63.5 34.5s58.833 10.5 97.5 10.5h36c56.667 0 96.334 -5.66699 119.001 -17l51 69l57 -43l-51 -70c12.667 -19.333 21 -40.5 25 -63.5s6 -49.167 6 -78.5v-122c0 -37.333 -3.5 -69 -10.5 -95s-18.5 -47 -34.5 -63s-37.167 -27.5 -63.5 -34.5
s-58.833 -10.5 -97.5 -10.5h-36zM428 300.997c0 19.333 -0.333008 37.168 -1 53.501s-1.66699 31.166 -3 44.499l-242 -331c28 -4 55.333 -6 82 -6h36c28 0 50.5 2.16699 67.5 6.5s30 12.333 39 24s14.833 27.167 17.5 46.5s4 44 4 74v88z" />
    <glyph glyph-name="ugrave" unicode="&#xf9;" horiz-adv-x="576" 
d="M498 0l-72.998 0.000976562v70c-12.667 -26.667 -32.834 -46.167 -60.501 -58.5s-63.834 -18.5 -108.501 -18.5c-34 0 -62.667 3.33301 -86 10s-42.166 17.334 -56.499 32.001s-24.5 33.667 -30.5 57s-9 51.666 -9 84.999v337h76v-321c0 -25.333 1.5 -46.333 4.5 -63
s8.66699 -30 17 -40s20.166 -17.167 35.499 -21.5s35.333 -6.5 60 -6.5c54 0 93.167 12.167 117.5 36.5s36.5 63.166 36.5 116.499v299h77v-514zM173.002 745.001h74l102 -170h-45z" />
    <glyph glyph-name="uacute" unicode="&#xfa;" horiz-adv-x="576" 
d="M498 0l-72.998 0.000976562v70c-12.667 -26.667 -32.834 -46.167 -60.501 -58.5s-63.834 -18.5 -108.501 -18.5c-34 0 -62.667 3.33301 -86 10s-42.166 17.334 -56.499 32.001s-24.5 33.667 -30.5 57s-9 51.666 -9 84.999v337h76v-321c0 -25.333 1.5 -46.333 4.5 -63
s8.66699 -30 17 -40s20.166 -17.167 35.499 -21.5s35.333 -6.5 60 -6.5c54 0 93.167 12.167 117.5 36.5s36.5 63.166 36.5 116.499v299h77v-514zM227.002 575.001l102 170h74l-131 -170h-45z" />
    <glyph glyph-name="ucircumflex" unicode="&#xfb;" horiz-adv-x="576" 
d="M498 0l-72.998 0.000976562v70c-12.667 -26.667 -32.834 -46.167 -60.501 -58.5s-63.834 -18.5 -108.501 -18.5c-34 0 -62.667 3.33301 -86 10s-42.166 17.334 -56.499 32.001s-24.5 33.667 -30.5 57s-9 51.666 -9 84.999v337h76v-321c0 -25.333 1.5 -46.333 4.5 -63
s8.66699 -30 17 -40s20.166 -17.167 35.499 -21.5s35.333 -6.5 60 -6.5c54 0 93.167 12.167 117.5 36.5s36.5 63.166 36.5 116.499v299h77v-514zM251.002 745.001h74l98 -170h-45l-90 128l-90 -128h-45z" />
    <glyph glyph-name="udieresis" unicode="&#xfc;" horiz-adv-x="576" 
d="M498 0l-72.998 0.000976562v70c-12.667 -26.667 -32.834 -46.167 -60.501 -58.5s-63.834 -18.5 -108.501 -18.5c-34 0 -62.667 3.33301 -86 10s-42.166 17.334 -56.499 32.001s-24.5 33.667 -30.5 57s-9 51.666 -9 84.999v337h76v-321c0 -25.333 1.5 -46.333 4.5 -63
s8.66699 -30 17 -40s20.166 -17.167 35.499 -21.5s35.333 -6.5 60 -6.5c54 0 93.167 12.167 117.5 36.5s36.5 63.166 36.5 116.499v299h77v-514zM332.002 692.001h69v-80h-69v80zM175.002 692.001h69v-80h-69v80z" />
    <glyph glyph-name="yacute" unicode="&#xfd;" horiz-adv-x="488" 
d="M99 514l153 -441.998l152 442h75l-194 -559c-9.33301 -26.667 -18.666 -49.834 -27.999 -69.501s-19.833 -35.834 -31.5 -48.501s-25 -22 -40 -28s-32.833 -9 -53.5 -9c-12 0 -25.333 1 -40 3v67c4 -0.666992 8 -1 12 -1h11c12.667 0 23.5 1.33301 32.5 4
s17 7.16699 24 13.5s13.167 14.5 18.5 24.5s10.666 22 15.999 36l19 53h-23l-179 514h76zM184 575.002l102 170h74l-131 -170h-45z" />
    <glyph glyph-name="thorn" unicode="&#xfe;" horiz-adv-x="574" 
d="M156 215c0 -54 12.332 -92.9961 36.999 -116.996s64.667 -36 120 -36c28 0 50.167 2.5 66.5 7.5s28.666 13.167 36.999 24.5s13.833 26.666 16.5 45.999s4 43.666 4 72.999v88c0 30.667 -1.33301 55.667 -4 75s-8.66699 34.666 -18 45.999s-22.666 19.166 -39.999 23.499
s-40.666 6.5 -69.999 6.5c-51.333 0 -89 -12.5 -113 -37.5s-36 -63.5 -36 -115.5v-84zM152.999 434.004c12 30 31.335 52 58.002 66s61.667 21 105 21c37.333 0 68.666 -3.66699 93.999 -11s45.833 -19.166 61.5 -35.499s27 -37.333 34 -63s10.5 -56.834 10.5 -93.501v-122
c0 -36.667 -3.5 -67.834 -10.5 -93.501s-18.333 -46.667 -34 -63s-36.167 -28.166 -61.5 -35.499s-56.666 -11 -93.999 -11c-40.667 0 -73.834 5.83301 -99.501 17.5s-45.834 32.5 -60.501 62.5v-270h-76v924h73v-293z" />
    <glyph glyph-name="ydieresis" unicode="&#xff;" horiz-adv-x="488" 
d="M99 514l153 -441.998l152 442h75l-194 -559c-9.33301 -26.667 -18.666 -49.834 -27.999 -69.501s-19.833 -35.834 -31.5 -48.501s-25 -22 -40 -28s-32.833 -9 -53.5 -9c-12 0 -25.333 1 -40 3v67c4 -0.666992 8 -1 12 -1h11c12.667 0 23.5 1.33301 32.5 4
s17 7.16699 24 13.5s13.167 14.5 18.5 24.5s10.666 22 15.999 36l19 53h-23l-179 514h76zM289 692.002h69v-80h-69v80zM132 692.002h69v-80h-69v80z" />
    <glyph glyph-name="dotlessi" unicode="&#x131;" horiz-adv-x="234" 
d="M79 514h76v-514h-76v514z" />
    <glyph glyph-name="Lslash" unicode="&#x141;" horiz-adv-x="597" 
d="M88 314l-78 -54v83l78 55v329h79v-286l174 121v-82l-174 -122v-282h412v-76h-491v314z" />
    <glyph glyph-name="lslash" unicode="&#x142;" horiz-adv-x="264" 
d="M106 380l-88 -62v78l88 62v269h76v-227l88 62v-78l-88 -62v-422h-76v380z" />
    <glyph glyph-name="OE" unicode="&#x152;" horiz-adv-x="1148" 
d="M148 243c0 -36 1.66699 -65.5 5 -88.5s13.333 -41.5 30 -55.5c18.667 -15.333 40 -24.5 64 -27.5s52.333 -4.5 85 -4.5h81c32.667 0 61 1.5 85 4.5s45.333 12.167 64 27.5c16.667 14 26.667 32.5 30 55.5s5 52.5 5 88.5v241c0 36 -1.66699 65.5 -5 88.5
s-13.333 41.5 -30 55.5c-18.667 15.333 -40 24.5 -64 27.5s-52.333 4.5 -85 4.5h-81c-32.667 0 -61 -1.5 -85 -4.5s-45.333 -12.167 -64 -27.5c-16.667 -14 -26.667 -32.5 -30 -55.5s-5 -52.5 -5 -88.5v-241zM597 67c-19.333 -30.667 -42.833 -51.0039 -70.5 -61.0039
s-63.5 -15 -107.5 -15h-92c-48.667 0 -89.667 4.16699 -123 12.5s-60.333 22.333 -81 42s-35.5 45.334 -44.5 77.001s-13.5 70.834 -13.5 117.501v247c0 46.667 4.5 85.834 13.5 117.501s23.833 57.334 44.5 77.001s47.667 33.667 81 42s74.333 12.5 123 12.5h92
c45.333 0 82 -5.16699 110 -15.5s50.667 -30.5 68 -60.5v67h510v-77h-430v-238h418v-74h-418v-262h430v-76h-510v67z" />
    <glyph glyph-name="oe" unicode="&#x153;" horiz-adv-x="931" 
d="M794 307v20c0 25.333 -2.16699 46 -6.5 62s-11.5 28.667 -21.5 38s-23.167 15.666 -39.5 18.999s-36.5 5 -60.5 5h-36c-24 0 -44.167 -1.66699 -60.5 -5s-29.5 -9.66602 -39.5 -18.999s-17.167 -22 -21.5 -38s-6.5 -36.667 -6.5 -62v-20h292zM265 -7
c-38.667 0 -71.167 3.5 -97.5 10.5s-47.666 18.5 -63.999 34.5s-28 37 -35 63s-10.5 57.667 -10.5 95v122c0 37.333 3.5 69 10.5 95s18.5 47 34.5 63s37.167 27.5 63.5 34.5s58.833 10.5 97.5 10.5h36c38.667 0 71.167 -3.83301 97.5 -11.5s49.166 -24.5 68.499 -50.5
c16.667 25.333 38 42 64 50s59.333 12 100 12h36c38.667 0 71.167 -3.5 97.5 -10.5s47.666 -18.5 63.999 -34.5s28 -37 35 -63s10.5 -57.667 10.5 -95v-78h-371c-0.666992 -8 -1 -15.5 -1 -22.5v-20.5c0 -27.333 2 -49.833 6 -67.5s10.833 -31.5 20.5 -41.5
s22.834 -16.833 39.501 -20.5s37.667 -5.5 63 -5.5h36c20.667 0 38.5 1.16699 53.5 3.5s27.667 6.83301 38 13.5s18.333 15.834 24 27.501s9.5 26.5 11.5 44.5h78c-4 -57.333 -22.5 -98 -55.5 -122s-82.833 -36 -149.5 -36h-36c-40.667 0 -74.167 4 -100.5 12
s-47.833 25 -64.5 51c-18 -26.667 -40 -43.834 -66 -51.501s-58.667 -11.5 -98 -11.5h-36zM428 301c0 30 -1.33301 54.667 -4 74s-8.5 34.666 -17.5 45.999s-22 19.166 -39 23.499s-39.5 6.5 -67.5 6.5h-36c-28 0 -50.5 -2.16699 -67.5 -6.5s-29.833 -12.166 -38.5 -23.499
s-14.334 -26.666 -17.001 -45.999s-4 -44 -4 -74v-88c0 -30 1.33301 -54.667 4 -74s8.33398 -34.833 17.001 -46.5s21.5 -19.667 38.5 -24s39.5 -6.5 67.5 -6.5h36c28 0 50.5 2.16699 67.5 6.5s30 12.333 39 24s14.833 27.167 17.5 46.5s4 44 4 74v88z" />
    <glyph glyph-name="Scaron" unicode="&#x160;" horiz-adv-x="713" 
d="M149 237l-0.000976562 -14.002c0 -38 2.66699 -68.333 8 -91s16.666 -38.667 33.999 -48c16 -9.33301 40.833 -14.666 74.5 -15.999s77.167 -2 130.5 -2c38 0 69 2.33301 93 7s42 13.667 54 27c12 12.667 18 45 18 97c0 22.667 -0.666992 41.667 -2 57
s-4.66602 27.833 -9.99902 37.5s-13.333 17 -24 22s-25.667 8.16699 -45 9.5l-224 18c-32 2.66699 -59.333 7.66699 -82 15s-41.167 18.333 -55.5 33s-24.666 33.834 -30.999 57.501s-9.5 52.834 -9.5 87.501c0 39.333 3.83301 72.333 11.5 99s21.834 49 42.501 67
c19.333 17.333 45.5 27.666 78.5 30.999s73.833 5 122.5 5h26c26.667 0 51.334 -0.333008 74.001 -1s43.5 -2.5 62.5 -5.5s36.667 -7.83301 53 -14.5s31.166 -15.667 44.499 -27c27.333 -23.333 41 -67 41 -131v-17c0 -6 -0.333008 -12 -1 -18h-81v18
c0 23.333 -1.33301 42.666 -4 57.999s-8 27 -16 35c-12.667 12.667 -35.334 20.334 -68.001 23.001s-77 4 -133 4c-32.667 0 -59.834 -1.16699 -81.501 -3.5s-39 -7.66602 -52 -15.999s-22.333 -21 -28 -38s-8.5 -40.167 -8.5 -69.5c0 -21.333 1.33301 -38.833 4 -52.5
s7.5 -24.834 14.5 -33.501s16.333 -15.167 28 -19.5s26.5 -7.16602 44.5 -8.49902l229 -19c30.667 -2.66699 56.334 -8.16699 77.001 -16.5s37.334 -20 50.001 -35s21.667 -33.667 27 -56s8 -49.5 8 -81.5c0 -38 -2.33301 -70.5 -7 -97.5s-15.667 -50.167 -33 -69.5
c-11.333 -13.333 -24.666 -23.5 -39.999 -30.5s-32.5 -12.333 -51.5 -16s-40.333 -5.83398 -64 -6.50098s-49.834 -1 -78.501 -1h-36c-47.333 0 -88.333 2.16699 -123 6.5s-64.334 17.5 -89.001 39.5c-19.333 16.667 -33 38.5 -41 65.5s-12 60.167 -12 99.5v18
c0 6 0.333008 12 1 18h80zM266.999 959.998l90 -128l90 128h45l-98 -170h-74l-98 170h45z" />
    <glyph glyph-name="scaron" unicode="&#x161;" horiz-adv-x="583" 
d="M137 153l-0.00488281 -11.9941c0 -17.333 2.66699 -31.5 8 -42.5s14 -19.5 26 -25.5s27.333 -10 46 -12s41 -3 67 -3s48.333 0.5 67 1.5s33.667 4.33301 45 10s19.666 14.5 24.999 26.5s8 28.667 8 50c0 18.667 -1.66699 33.5 -5 44.5s-9.33301 19.5 -18 25.5
s-20.167 10.167 -34.5 12.5s-32.833 4.16602 -55.5 5.49902c-52 2.66699 -94.667 4.33398 -128 5.00098s-56.666 4.66699 -69.999 12c-21.333 11.333 -35.666 26.833 -42.999 46.5s-11 45.5 -11 77.5s4.16699 57.667 12.5 77s21.666 34.166 39.999 44.499s42.5 17 72.5 20
s66.667 4.5 110 4.5c34 0 63.333 -1.66699 88 -5s45 -9.83301 61 -19.5s27.833 -23 35.5 -40s11.5 -38.833 11.5 -65.5h-76v5c0 25.333 -11.667 41.666 -35 48.999s-60.666 11 -111.999 11c-26.667 0 -48.5 -0.833008 -65.5 -2.5s-30.5 -5.33398 -40.5 -11.001
s-16.833 -13.834 -20.5 -24.501s-5.5 -25 -5.5 -43c0 -16 1 -28.833 3 -38.5s7.66699 -17.167 17 -22.5c14 -7.33301 31.833 -11.333 53.5 -12s47.834 -1.66699 78.501 -3c40 -1.33301 72.833 -3.33301 98.5 -6s44.167 -6.66699 55.5 -12c24 -11.333 40.5 -27 49.5 -47
s13.5 -47.667 13.5 -83s-4.33301 -63.166 -13 -83.499s-26 -38.5 -52 -54.5c-12 -7.33301 -31.167 -12.5 -57.5 -15.5s-60.166 -4.5 -101.499 -4.5c-39.333 0 -73.166 1.66699 -101.499 5s-51.666 10.166 -69.999 20.499s-31.833 25.166 -40.5 44.499s-13 44.666 -13 75.999
v14h77zM201.995 745.006l90 -128l90 128h45l-98 -170h-74l-98 170h45z" />
    <glyph glyph-name="Ydieresis" unicode="&#x178;" horiz-adv-x="595" 
d="M258 0v322l-301 405h95l245 -339l245 339h95l-300 -404v-323h-79zM342 907h69v-80h-69v80zM185 907h69v-80h-69v80z" />
    <glyph glyph-name="Zcaron" unicode="&#x17d;" horiz-adv-x="650" 
d="M47 87l467 568h-446v72h531v-85l-464 -566h464v-76h-552v87zM235 960l90 -128l90 128h45l-98 -170h-74l-98 170h45z" />
    <glyph glyph-name="zcaron" unicode="&#x17e;" horiz-adv-x="516" 
d="M58 83l318 361h-303v70h396v-71l-329 -374h329v-69h-411v83zM168 745l90 -128l90 128h45l-98 -170h-74l-98 170h45z" />
    <glyph glyph-name="florin" unicode="&#x192;" horiz-adv-x="676" 
d="M-23 -112c35.333 -7.33301 61.335 -10.999 78.002 -10.999c22 0 40.667 3.5 56 10.5s28.333 17.833 39 32.5s19.5 33.167 26.5 55.5s13.5 49.166 19.5 80.499l62 330h-144v65h154l17 92c11.333 64 33.666 112.167 66.999 144.5s75.666 48.5 126.999 48.5
c13.333 0 27.5 -0.833008 42.5 -2.5s31.167 -4.5 48.5 -8.5v-73c-35.333 7.33301 -61.666 11 -78.999 11c-65.333 0 -106 -42.667 -122 -128l-16 -84h153v-65h-162l-66 -349c-8 -40.667 -17.5 -75.667 -28.5 -105s-24.833 -53.5 -41.5 -72.5s-36.5 -33.167 -59.5 -42.5
s-50.5 -14 -82.5 -14c-13.333 0 -27.333 1 -42 3s-30.334 4.66699 -47.001 8v74z" />
    <glyph glyph-name="circumflex" unicode="&#x2c6;" 
d="M213 745h74l98 -170h-45l-90 128l-90 -128h-45z" />
    <glyph glyph-name="caron" unicode="&#x2c7;" 
d="M160 745l90 -128l90 128h45l-98 -170h-74l-98 170h45z" />
    <glyph glyph-name="breve" unicode="&#x2d8;" 
d="M155 724c2 -25.333 10.665 -43.5 25.998 -54.5s38.333 -16.5 69 -16.5s53.5 5.5 68.5 16.5s23.5 29.167 25.5 54.5h40c-3.33301 -44.667 -15.5 -77.167 -36.5 -97.5s-53.5 -30.5 -97.5 -30.5c-43.333 0 -75.666 10.333 -96.999 31s-33.666 53 -36.999 97h39z" />
    <glyph glyph-name="dotaccent" unicode="&#x2d9;" 
d="M213 695h74v-85h-74v85z" />
    <glyph glyph-name="ring" unicode="&#x2da;" 
d="M177 666c0 -20.667 7 -38 21 -52s31.333 -21 52 -21c20 0 37.167 7 51.5 21s21.5 31.333 21.5 52s-7 38 -21 52s-31.333 21 -52 21s-38 -7 -52 -21s-21 -31.333 -21 -52zM133 666c0 16.667 3 32.167 9 46.5s14.167 26.833 24.5 37.5s22.666 19 36.999 25s29.833 9 46.5 9
s32.167 -3 46.5 -9s26.833 -14.333 37.5 -25s19 -23.167 25 -37.5s9 -29.833 9 -46.5s-3 -32.167 -9 -46.5s-14.333 -26.666 -25 -36.999s-23.167 -18.5 -37.5 -24.5s-29.833 -9 -46.5 -9s-32.167 3 -46.5 9s-26.666 14.167 -36.999 24.5s-18.5 22.666 -24.5 36.999
s-9 29.833 -9 46.5z" />
    <glyph glyph-name="ogonek" unicode="&#x2db;" 
d="M235 -88c-4 -7.33301 -7.33301 -14 -10 -20s-4 -11.667 -4 -17c0 -12.667 6.33301 -19 19 -19h51v-53h-78c-20 0 -34 3 -42 9s-12 17.333 -12 34c0 17.333 7.33301 36 22 56l73 98h33z" />
    <glyph glyph-name="tilde" unicode="&#x2dc;" 
d="M391 703c-16.667 -58.667 -47.665 -88 -92.998 -88c-9.33301 0 -20 1.66699 -32 5l-47 14c-10 3.33301 -18.667 5 -26 5c-19.333 0 -34.333 -12 -45 -36h-39c7.33301 29.333 19.166 51.5 35.499 66.5s36.166 22.5 59.499 22.5c10 0 18.667 -1.33301 26 -4l47 -15
c5.33301 -2 10.333 -3.33301 15 -4s8.66699 -1 12 -1c21.333 0 37 11.667 47 35h40z" />
    <glyph glyph-name="hungarumlaut" unicode="&#x2dd;" 
d="M361 745h65l-111 -170h-36zM237 745h65l-102 -170h-36z" />
    <glyph glyph-name="endash" unicode="&#x2013;" 
d="M0 296h500v-51h-500v51z" />
    <glyph glyph-name="emdash" unicode="&#x2014;" horiz-adv-x="1000" 
d="M1000 296v-51h-1000v51h1000z" />
    <glyph glyph-name="quoteleft" unicode="&#x2018;" horiz-adv-x="324" 
d="M202 528h-80v122c0 24.667 6.83301 43.667 20.5 57s33.5 20 59.5 20v-43c-12 -1.33301 -20.5 -4.5 -25.5 -9.5s-7.5 -13.167 -7.5 -24.5v-21h33v-101z" />
    <glyph glyph-name="quoteright" unicode="&#x2019;" horiz-adv-x="324" 
d="M122 727h80v-122c0 -24.667 -6.83301 -43.667 -20.5 -57s-33.5 -20 -59.5 -20v43c12 1.33301 20.5 4.5 25.5 9.5s7.5 13.167 7.5 24.5v21h-33v101z" />
    <glyph glyph-name="quotesinglbase" unicode="&#x201a;" horiz-adv-x="324" 
d="M122 101h80v-122c0 -24.667 -6.83301 -43.667 -20.5 -57s-33.5 -20 -59.5 -20v43c12 1.33301 20.5 4.5 25.5 9.5s7.5 13.167 7.5 24.5v21h-33v101z" />
    <glyph glyph-name="quotedblleft" unicode="&#x201c;" horiz-adv-x="491" 
d="M370 528h-81v122c0 24.667 7 43.667 21 57s34 20 60 20v-43c-12 -1.33301 -20.667 -4.5 -26 -9.5s-8 -13.167 -8 -24.5v-21h34v-101zM201 528h-80v122c0 24.667 6.83301 43.667 20.5 57s33.5 20 59.5 20v-43c-12 -1.33301 -20.5 -4.5 -25.5 -9.5s-7.5 -13.167 -7.5 -24.5
v-21h33v-101z" />
    <glyph glyph-name="quotedblright" unicode="&#x201d;" horiz-adv-x="491" 
d="M121 727h80v-122c0 -24.667 -6.83301 -43.667 -20.5 -57s-33.5 -20 -59.5 -20v43c12 1.33301 20.5 4.5 25.5 9.5s7.5 13.167 7.5 24.5v21h-33v101zM289 727h80v-122c0 -24.667 -6.83301 -43.667 -20.5 -57s-33.5 -20 -59.5 -20v43c12 1.33301 20.5 4.5 25.5 9.5
s7.5 13.167 7.5 24.5v21h-33v101z" />
    <glyph glyph-name="quotedblbase" unicode="&#x201e;" horiz-adv-x="491" 
d="M121 101h80v-122c0 -24.667 -6.83301 -43.667 -20.5 -57s-33.5 -20 -59.5 -20v43c12 1.33301 20.5 4.5 25.5 9.5s7.5 13.167 7.5 24.5v21h-33v101zM289 101h80v-122c0 -24.667 -6.83301 -43.667 -20.5 -57s-33.5 -20 -59.5 -20v43c12 1.33301 20.5 4.5 25.5 9.5
s7.5 13.167 7.5 24.5v21h-33v101z" />
    <glyph glyph-name="dagger" unicode="&#x2020;" 
d="M288 532h144v-69h-144v-463h-76v463h-144v69h144v195h76v-195z" />
    <glyph glyph-name="daggerdbl" unicode="&#x2021;" 
d="M288 561h144v-69h-144v-256h144v-69h-144v-167h-76v167h-144v69h144v256h-144v69h144v166h76v-166z" />
    <glyph glyph-name="bullet" unicode="&#x2022;" horiz-adv-x="590" 
d="M150 372c0 20 3.83301 38.666 11.5 55.999s18 32.5 31 45.5s28.333 23.333 46 31s36.5 11.5 56.5 11.5s38.667 -3.83301 56 -11.5s32.5 -18 45.5 -31s23.333 -28.167 31 -45.5s11.5 -36 11.5 -56s-3.83301 -38.667 -11.5 -56s-18 -32.666 -31 -45.999
s-28.333 -23.833 -46 -31.5s-36.5 -11.5 -56.5 -11.5s-38.833 3.83301 -56.5 11.5s-33 18 -46 31s-23.167 28.333 -30.5 46s-11 36.5 -11 56.5z" />
    <glyph glyph-name="ellipsis" unicode="&#x2026;" horiz-adv-x="1000" 
d="M730 106h85v-106h-85v106zM396 106h85v-106h-85v106zM63 106h85v-106h-85v106z" />
    <glyph glyph-name="perthousand" unicode="&#x2030;" horiz-adv-x="1336" 
d="M1148 57c20 0 35.833 1.50195 47.5 4.50195s20.5 8.5 26.5 16.5s9.83301 18.667 11.5 32s2.5 30.666 2.5 51.999v123c0 20.667 -0.833008 37.834 -2.5 51.501s-5.5 24.5 -11.5 32.5s-14.833 13.667 -26.5 17s-27.5 5 -47.5 5h-36c-20 0 -35.833 -1.66699 -47.5 -5
s-20.5 -9 -26.5 -17s-9.83301 -18.833 -11.5 -32.5s-2.5 -30.834 -2.5 -51.501v-123c0 -21.333 0.833008 -38.833 2.5 -52.5s5.5 -24.334 11.5 -32.001s14.833 -13 26.5 -16s27.5 -4.5 47.5 -4.5h36zM1108 -8.99805c-28 0 -51.5 2.66699 -70.5 8s-34.333 14.166 -46 26.499
s-20 28.5 -25 48.5s-7.5 44.333 -7.5 73v153c0 28.667 2.5 52.834 7.5 72.501s13.333 35.667 25 48s27 21.333 46 27s42.5 8.5 70.5 8.5h44c28 0 51.5 -2.83301 70.5 -8.5s34.333 -14.667 46 -27s19.834 -28.333 24.501 -48s7 -43.834 7 -72.501v-153
c0 -28.667 -2.33301 -53 -7 -73s-12.834 -36.167 -24.501 -48.5s-27 -21.166 -46 -26.499s-42.5 -8 -70.5 -8h-44zM185 271.002c-28 0 -51.5 2.66699 -70.5 8s-34.333 14.166 -46 26.499s-20 28.333 -25 48s-7.5 43.834 -7.5 72.501v154c0 28.667 2.5 52.834 7.5 72.501
s13.333 35.667 25 48s27 21.333 46 27s42.5 8.5 70.5 8.5h44c28 0 51.5 -2.83301 70.5 -8.5s34.333 -14.667 46 -27s19.834 -28.333 24.501 -48s7 -43.834 7 -72.501v-154c0 -28.667 -2.33301 -52.834 -7 -72.501s-12.834 -35.667 -24.501 -48s-27 -21.166 -46 -26.499
s-42.5 -8 -70.5 -8h-44zM718 57.002c20 0 35.833 1.50195 47.5 4.50195s20.5 8.5 26.5 16.5s10 18.667 12 32s3 30.666 3 51.999v123c0 20.667 -0.833008 37.834 -2.5 51.501s-5.66699 24.5 -12 32.5s-15.333 13.667 -27 17s-27.5 5 -47.5 5h-35
c-20 0 -35.833 -1.66699 -47.5 -5s-20.667 -9 -27 -17s-10.333 -18.833 -12 -32.5s-2.5 -30.834 -2.5 -51.501v-123c0 -21.333 1 -38.833 3 -52.5s6 -24.334 12 -32.001s14.833 -13 26.5 -16s27.5 -4.5 47.5 -4.5h35zM225 337.004c20 0 35.833 1.50195 47.5 4.50195
s20.5 8.5 26.5 16.5s9.83301 18.667 11.5 32s2.5 30.666 2.5 51.999v123c0 20.667 -0.833008 37.834 -2.5 51.501s-5.5 24.5 -11.5 32.5s-14.833 13.667 -26.5 17s-27.5 5 -47.5 5h-36c-20 0 -35.833 -1.66699 -47.5 -5s-20.667 -9 -27 -17s-10.333 -18.833 -12 -32.5
s-2.5 -30.834 -2.5 -51.501v-123c0 -21.333 1 -38.833 3 -52.5s6 -24.334 12 -32.001s14.833 -13 26.5 -16s27.5 -4.5 47.5 -4.5h36zM678 -8.99414c-28 0 -51.5 2.66699 -70.5 8s-34.167 14.166 -45.5 26.499s-19.5 28.5 -24.5 48.5s-7.5 44.333 -7.5 73v153
c0 28.667 2.5 52.834 7.5 72.501s13.167 35.667 24.5 48s26.5 21.333 45.5 27s42.5 8.5 70.5 8.5h44c28 0 51.667 -2.83301 71 -8.5s34.666 -14.667 45.999 -27s19.5 -28.333 24.5 -48s7.5 -43.834 7.5 -72.501v-153c0 -28.667 -2.5 -53 -7.5 -73
s-13.167 -36.167 -24.5 -48.5s-26.666 -21.166 -45.999 -26.499s-43 -8 -71 -8h-44zM547 736.006h69l-257 -745h-69z" />
    <glyph glyph-name="guilsinglleft" unicode="&#x2039;" horiz-adv-x="308" 
d="M168 104l-120 153l120 153h84l-121 -153l121 -153h-84z" />
    <glyph glyph-name="guilsinglright" unicode="&#x203a;" horiz-adv-x="308" 
d="M177 257l-121 153h84l120 -153l-120 -153h-84z" />
    <glyph glyph-name="fraction" unicode="&#x2044;" horiz-adv-x="167" 
d="M257 736h76l-423 -745h-77z" />
    <glyph glyph-name="fraction" unicode="&#x2215;" horiz-adv-x="167" 
d="M257 736h76l-423 -745h-77z" />
    <glyph glyph-name="trademark" unicode="&#x2122;" horiz-adv-x="833" 
d="M539 504l76 206h57v-259h-35v228l-86 -228h-24l-91 228v-228h-35v259h57zM339 682h-84v-231h-40v231h-86v28h210v-28z" />
    <glyph glyph-name="minus" unicode="&#x2212;" horiz-adv-x="833" 
d="M709 274h-585v48h585v-48z" />
    <glyph glyph-name=".null" horiz-adv-x="0" 
 />
    <glyph glyph-name="nonmarkingreturn" horiz-adv-x="338" 
 />
  </font>
</defs>
</svg>
